<?xml version="1.0" standalone="no"?>
<!DOCTYPE svg PUBLIC "-//W3C//DTD SVG 1.1//EN" "http://www.w3.org/Graphics/SVG/1.1/DTD/svg11.dtd" >
<svg xmlns="http://www.w3.org/2000/svg" xmlns:xlink="http://www.w3.org/1999/xlink" version="1.1">
<metadata>
Created by FontForge 20190801 at Wed Feb  3 17:24:03 2016
 By root
Copyright (c) 2011, Jonas Hecksher, Playtypes, e-types AS (lasse@e-types.com), with Reserved Font Name 'Play', 'Playtype', 'Playtype Sans'.
</metadata>
<defs>
<font id="Play-Bold" horiz-adv-x="580" >
  <font-face 
    font-family="Play"
    font-weight="700"
    font-stretch="normal"
    units-per-em="1000"
    panose-1="2 11 0 0 0 0 0 0 0 0"
    ascent="800"
    descent="-200"
    x-height="484"
    cap-height="649"
    bbox="-186 -220 1306 932"
    underline-thickness="50"
    underline-position="-100"
    unicode-range="U+0020-FB04"
  />
<missing-glyph horiz-adv-x="260" 
 />
    <glyph glyph-name="f_f" unicode="ff" horiz-adv-x="709" 
d="M719 612q-60 8 -86 8q-36 0 -50.5 -11.5t-14.5 -43.5v-81h133v-90h-133v-394h-146v394h-175v-394h-146v394h-91v90h91v73q0 89 45 121t143 32q40 0 86 -5v-90q-39 5 -63 5q-36 0 -50.5 -11.5t-14.5 -43.5v-81h175v73q0 89 45 121t143 32q42 0 109 -8v-90z" />
    <glyph glyph-name="f_i" unicode="fi" horiz-adv-x="636" 
d="M375 705v-90q-39 5 -63 5q-36 0 -50.5 -11.5t-14.5 -43.5v-81h123v-90h-123v-394h-146v394h-91v90h91v73q0 89 45 121t143 32q40 0 86 -5zM568 582h-146v118h146v-118zM568 0h-146v484h146v-484z" />
    <glyph glyph-name="f_l" unicode="fl" horiz-adv-x="636" 
d="M375 705v-90q-39 5 -63 5q-36 0 -50.5 -11.5t-14.5 -43.5v-81h123v-90h-123v-394h-146v394h-91v90h91v73q0 89 45 121t143 32q40 0 86 -5zM568 0h-146v700h146v-700z" />
    <glyph glyph-name="f_f_i" unicode="ffi" horiz-adv-x="957" 
d="M696 705v-90q-39 5 -63 5q-36 0 -50.5 -11.5t-14.5 -43.5v-81h123v-90h-123v-394h-146v394h-175v-394h-146v394h-91v90h91v73q0 89 45 121t143 32q40 0 86 -5v-90q-39 5 -63 5q-36 0 -50.5 -11.5t-14.5 -43.5v-81h175v73q0 89 45 121t143 32q40 0 86 -5zM889 0h-146v484
h146v-484zM889 582h-146v118h146v-118z" />
    <glyph glyph-name="f_f_l" unicode="ffl" horiz-adv-x="957" 
d="M696 705v-90q-39 5 -63 5q-36 0 -50.5 -11.5t-14.5 -43.5v-81h123v-90h-123v-394h-146v394h-175v-394h-146v394h-91v90h91v73q0 89 45 121t143 32q40 0 86 -5v-90q-39 5 -63 5q-36 0 -50.5 -11.5t-14.5 -43.5v-81h175v73q0 89 45 121t143 32q40 0 86 -5zM889 0h-146v700
h146v-700z" />
    <glyph glyph-name="f_b" unicode="fb" horiz-adv-x="968" 
d="M375 705v-90q-39 5 -63 5q-36 0 -50.5 -11.5t-14.5 -43.5v-81h123v-90h-123v-394h-146v394h-91v90h91v73q0 89 45 121t143 32q40 0 86 -5zM918 331v-159q0 -99 -59.5 -140.5t-191.5 -41.5q-139 0 -192 43.5t-53 138.5v528h146v-264q13 33 48.5 45.5t108.5 12.5
q62 0 101 -10t59 -32.5t26.5 -49.5t6.5 -71zM772 153v179q0 47 -17.5 59.5t-86.5 12.5q-62 0 -81 -16t-19 -56v-179q0 -43 18.5 -57.5t82.5 -14.5t83.5 14.5t19.5 57.5z" />
    <glyph glyph-name="f_h" unicode="fh" horiz-adv-x="953" 
d="M375 705v-90q-39 5 -63 5q-36 0 -50.5 -11.5t-14.5 -43.5v-81h123v-90h-123v-394h-146v394h-91v90h91v73q0 89 45 121t143 32q40 0 86 -5zM889 0h-146v338q0 40 -13.5 53t-64.5 13q-63 0 -80 -12.5t-17 -53.5v-338h-146v700h146v-275q14 69 153 69q96 0 132 -34.5
t36 -104.5v-355z" />
    <glyph glyph-name="f_j" unicode="fj" horiz-adv-x="632" 
d="M375 705v-90q-39 5 -63 5q-36 0 -50.5 -11.5t-14.5 -43.5v-81h123v-90h-123v-394h-146v394h-91v90h91v73q0 89 45 121t143 32q40 0 86 -5zM568 484v-557q0 -86 -51.5 -116.5t-149.5 -30.5q-13 0 -47 2v95q6 -1 18 -1q54 0 69 14t15 70v524h146zM568 582h-146v118h146
v-118z" />
    <glyph glyph-name="f_k" unicode="fk" horiz-adv-x="898" 
d="M375 705v-90q-39 5 -63 5q-36 0 -50.5 -11.5t-14.5 -43.5v-81h123v-90h-123v-394h-146v394h-91v90h91v73q0 89 45 121t143 32q40 0 86 -5zM914 0h-165l-175 272l159 212h167l-168 -211zM568 0h-146v700h146v-700z" />
    <glyph glyph-name="f_f_b" unicode="ffb" horiz-adv-x="1289" 
d="M1239 331v-159q0 -99 -59.5 -140.5t-191.5 -41.5q-139 0 -192 43.5t-53 138.5v528h146v-264q13 33 48.5 45.5t108.5 12.5q62 0 101 -10t59 -32.5t26.5 -49.5t6.5 -71zM696 705v-90q-39 5 -63 5q-36 0 -50.5 -11.5t-14.5 -43.5v-81h123v-90h-123v-394h-146v394h-175v-394
h-146v394h-91v90h91v73q0 89 45 121t143 32q40 0 86 -5v-90q-39 5 -63 5q-36 0 -50.5 -11.5t-14.5 -43.5v-81h175v73q0 89 45 121t143 32q40 0 86 -5zM1093 153v179q0 47 -17.5 59.5t-86.5 12.5q-62 0 -81 -16t-19 -56v-179q0 -43 18.5 -57.5t82.5 -14.5t83.5 14.5
t19.5 57.5z" />
    <glyph glyph-name="f_f_h" unicode="ffh" horiz-adv-x="1274" 
d="M696 705v-90q-39 5 -63 5q-36 0 -50.5 -11.5t-14.5 -43.5v-81h123v-90h-123v-394h-146v394h-175v-394h-146v394h-91v90h91v73q0 89 45 121t143 32q40 0 86 -5v-90q-39 5 -63 5q-36 0 -50.5 -11.5t-14.5 -43.5v-81h175v73q0 89 45 121t143 32q40 0 86 -5zM1210 0h-146v338
q0 40 -13.5 53t-64.5 13q-63 0 -80 -12.5t-17 -53.5v-338h-146v700h146v-275q14 69 153 69q96 0 132 -34.5t36 -104.5v-355z" />
    <glyph glyph-name="f_f_j" unicode="ffj" horiz-adv-x="953" 
d="M696 705v-90q-39 5 -63 5q-36 0 -50.5 -11.5t-14.5 -43.5v-81h123v-90h-123v-394h-146v394h-175v-394h-146v394h-91v90h91v73q0 89 45 121t143 32q40 0 86 -5v-90q-39 5 -63 5q-36 0 -50.5 -11.5t-14.5 -43.5v-81h175v73q0 89 45 121t143 32q40 0 86 -5zM889 484v-557
q0 -86 -51.5 -116.5t-149.5 -30.5q-13 0 -47 2v95q6 -1 18 -1q54 0 69 14t15 70v524h146zM889 582h-146v118h146v-118z" />
    <glyph glyph-name="f_f_k" unicode="ffk" horiz-adv-x="1219" 
d="M696 705v-90q-39 5 -63 5q-36 0 -50.5 -11.5t-14.5 -43.5v-81h123v-90h-123v-394h-146v394h-175v-394h-146v394h-91v90h91v73q0 89 45 121t143 32q40 0 86 -5v-90q-39 5 -63 5q-36 0 -50.5 -11.5t-14.5 -43.5v-81h175v73q0 89 45 121t143 32q40 0 86 -5zM889 0h-146v700
h146v-700zM1235 0h-165l-175 272l159 212h167l-168 -211z" />
    <glyph glyph-name="f_t" unicode="ft" horiz-adv-x="721" 
d="M375 705v-90q-39 5 -63 5q-36 0 -50.5 -11.5t-14.5 -43.5v-81h175v140h146v-140h133v-90h-133v-228q0 -50 15 -67.5t66 -17.5q17 0 52 5v-91q-42 -5 -81 -5q-34 0 -59.5 2.5t-53 12t-45 25t-29 44t-11.5 67.5v253h-175v-394h-146v394h-91v90h91v73q0 89 45 121t143 32
q40 0 86 -5z" />
    <glyph glyph-name="f_f_f" unicode="fff" horiz-adv-x="1164" 
d="M398 612q-60 8 -86 8q-36 0 -50.5 -11.5t-14.5 -43.5v-81h133v-90h-133v-394h-146v394h-91v90h91v73q0 89 45 121t143 32q42 0 109 -8v-90zM786 612q-60 8 -86 8q-36 0 -50.5 -11.5t-14.5 -43.5v-81h133v-90h-133v-394h-146v394h-91v90h91v73q0 89 45 121t143 32
q42 0 109 -8v-90zM1174 612q-60 8 -86 8q-36 0 -50.5 -11.5t-14.5 -43.5v-81h133v-90h-133v-394h-146v394h-91v90h91v73q0 89 45 121t143 32q42 0 109 -8v-90z" />
    <glyph glyph-name=".notdef" horiz-adv-x="260" 
 />
    <glyph glyph-name=".null" horiz-adv-x="0" 
 />
    <glyph glyph-name="nonmarkingreturn" horiz-adv-x="333" 
 />
    <glyph glyph-name="space" unicode=" " horiz-adv-x="230" 
 />
    <glyph glyph-name="exclam" unicode="!" horiz-adv-x="295" 
d="M235 649l-43 -461h-89l-43 461h175zM226 0h-156v138h156v-138z" />
    <glyph glyph-name="quotedbl" unicode="&#x22;" horiz-adv-x="443" 
d="M376 399h-119v250h119v-250zM185 399h-118v250h118v-250z" />
    <glyph glyph-name="numbersign" unicode="#" 
d="M520 193h-138l-39 -193h-86l39 193h-64l-39 -193h-86l39 193h-86v79h102l22 104h-124v80h140l37 183h86l-37 -183h64l37 183h86l-37 -183h84v-80h-101l-21 -104h122v-79zM334 376h-65l-21 -104h64z" />
    <glyph glyph-name="dollar" unicode="$" horiz-adv-x="606" 
d="M573 215v-30q0 -93 -58 -137t-161 -54v-134h-94v130q-80 1 -214 18v115q17 -3 53.5 -9t55 -8.5t48 -5.5t57.5 -3v166h-19q-208 0 -208 170v34q0 76 53.5 116t173.5 47v72h94v-70q98 -4 187 -13v-107q-124 15 -187 17v-148h13q113 0 159.5 -42t46.5 -124zM260 381v147
q-44 -3 -60.5 -13t-16.5 -34v-56q0 -42 77 -44zM422 153v56q0 23 -13.5 37t-54.5 17v-161q68 10 68 51z" />
    <glyph glyph-name="percent" unicode="%" horiz-adv-x="855" 
d="M818 224v-119q0 -71 -41 -93t-125 -22q-85 0 -126 22t-41 93v119q0 34 10.5 58.5t25.5 37.5t39 20.5t44 9.5t48 2t48 -2t44 -9.5t38.5 -20.5t25 -37.5t10.5 -58.5zM636 659l-324 -669h-87l324 669h87zM370 513v-119q0 -71 -41 -93t-125 -22q-85 0 -126 22t-41 93v119
q0 34 10.5 58.5t25.5 37.5t39 20.5t44 9.5t48 2t48 -2t44 -9.5t38.5 -20.5t25 -37.5t10.5 -58.5zM707 95v147q0 34 -55 34q-56 0 -56 -34v-147q0 -29 56 -29q55 0 55 29zM259 384v147q0 34 -55 34q-56 0 -56 -34v-147q0 -18 14 -23.5t42 -5.5q55 0 55 29z" />
    <glyph glyph-name="ampersand" unicode="&#x26;" horiz-adv-x="656" 
d="M656 0h-92q-49 0 -68 21l-7 7q-73 -38 -193 -38q-111 0 -178.5 31.5t-67.5 100.5v121q0 79 130 120l-30 32q-31 34 -31 72v79q0 56 50.5 84.5t141.5 28.5q66 0 166 -17v-99q-92 21 -160 21q-57 0 -57 -31v-39q0 -23 9 -33l210 -231v149h132v-161q0 -56 -36 -94l19 -21
q8 -8 18 -8h44v-95zM423 99l-190 206q-33 -12 -33 -38v-122q0 -29 24 -44t90 -15q79 0 109 13z" />
    <glyph glyph-name="quotesingle" unicode="'" horiz-adv-x="256" 
d="M187 399h-118v250h118v-250z" />
    <glyph glyph-name="parenleft" unicode="(" horiz-adv-x="348" 
d="M338 -127h-137q-131 183 -131 403q0 114 32 210.5t99 192.5h136q-124 -205 -124 -403q0 -205 125 -403z" />
    <glyph glyph-name="parenright" unicode=")" horiz-adv-x="348" 
d="M268 276q0 -220 -131 -403h-137q125 198 125 403q0 198 -124 403h136q67 -96 99 -192.5t32 -210.5z" />
    <glyph glyph-name="asterisk" unicode="*" horiz-adv-x="446" 
d="M401 481l-109 -24l75 -86l-89 -59l-55 95l-56 -95l-88 60l77 85l-112 24l34 100l105 -44l-11 112h106l-10 -111l101 43z" />
    <glyph glyph-name="plus" unicode="+" 
d="M340 544v-179h170v-101h-170v-180h-101v180h-169v101h169v179h101z" />
    <glyph glyph-name="comma" unicode="," horiz-adv-x="256" 
d="M217 138l-94 -250h-104l46 250h152z" />
    <glyph glyph-name="hyphen" unicode="-" horiz-adv-x="388" 
d="M348 230h-308v112h308v-112z" />
    <glyph glyph-name="period" unicode="." horiz-adv-x="256" 
d="M206 0h-156v138h156v-138z" />
    <glyph glyph-name="slash" unicode="/" horiz-adv-x="431" 
d="M421 659l-324 -669h-87l324 669h87z" />
    <glyph glyph-name="zero" unicode="0" 
d="M51 169v311q0 48 14.5 82.5t35 53t55 28.5t63.5 12.5t70 2.5q40 0 68.5 -2.5t63.5 -13t56.5 -28.5t36.5 -52.5t15 -82.5v-311q0 -48 -15 -82.5t-36.5 -52.5t-56.5 -28.5t-63.5 -13t-68.5 -2.5q-41 0 -70 2.5t-63.5 12.5t-55 28.5t-35 53t-14.5 82.5zM199 490v-331
q0 -47 15 -61t77 -14q61 0 75.5 14t14.5 61v331q0 47 -14.5 61t-75.5 14q-62 0 -77 -14t-15 -61z" />
    <glyph glyph-name="one" unicode="1" 
d="M408 0h-146v496l-177 -98v123l205 128h118v-649z" />
    <glyph glyph-name="two" unicode="2" 
d="M514 0h-456v148q0 56 31.5 95.5t76 59t89 34.5t76 34t31.5 47v83q0 30 -25 41t-84 11q-67 0 -182 -25v110q101 21 209 21q115 0 174 -35t59 -121v-90q0 -53 -32 -90t-77.5 -55.5t-91.5 -34t-78 -37.5t-32 -54v-33h312v-109z" />
    <glyph glyph-name="three" unicode="3" 
d="M502 251v-106q0 -84 -58 -119.5t-179 -35.5q-85 0 -218 15v116q10 -2 32 -6.5t29.5 -6t25 -4.5t27 -4t24.5 -2.5t29.5 -2t31.5 -0.5q58 0 80.5 14t22.5 53v75q0 47 -101 47h-118v100h118q78 0 78 57v63q0 31 -18.5 42.5t-78.5 11.5q-58 0 -176 -12v104q137 9 192 9
q118 0 174.5 -27t56.5 -100v-107q0 -31 -18.5 -50.5t-43.5 -26.5q88 -32 88 -97z" />
    <glyph glyph-name="four" unicode="4" 
d="M528 131h-70v-131h-132v131h-300v115l267 403h165v-413h70v-105zM326 236v275l-175 -275h175z" />
    <glyph glyph-name="five" unicode="5" 
d="M503 280v-136q0 -41 -15.5 -71t-37.5 -45.5t-56.5 -24.5t-61.5 -11t-64 -2q-75 0 -207 11v121q121 -23 187 -23q54 0 79.5 12t25.5 40v97q0 27 -18 38.5t-59 11.5h-200v351h410v-112h-264v-132h102q28 0 55.5 -5t57 -17.5t48 -39t18.5 -63.5z" />
    <glyph glyph-name="six" unicode="6" 
d="M525 257v-88q0 -48 -14.5 -82t-35.5 -52.5t-54.5 -29t-62.5 -13t-69 -2.5q-41 0 -70 2.5t-62.5 13t-53.5 29t-34 52.5t-14 82v302q0 51 17.5 87.5t41.5 55.5t62.5 29.5t68 13t69.5 2.5q36 0 180 -10v-107q-140 16 -193 16q-68 0 -84.5 -12t-16.5 -64v-77h107
q48 0 74 -1.5t58 -9.5t48 -23t27 -43.5t11 -70.5zM380 162v94q0 34 -15 43.5t-75 9.5h-90v-148q0 -48 14.5 -61t76.5 -13t75.5 12.5t13.5 62.5z" />
    <glyph glyph-name="seven" unicode="7" 
d="M516 549l-249 -549h-162l250 535h-315v114h476v-100z" />
    <glyph glyph-name="eight" unicode="8" 
d="M290 -10q-125 0 -186.5 31t-61.5 112v112q0 33 32.5 60.5t75.5 37.5v4q-33 4 -59.5 27.5t-26.5 55.5v93q0 68 49.5 102t176.5 34t176.5 -34t49.5 -102v-93q0 -32 -26.5 -55.5t-59.5 -27.5v-4q43 -10 75.5 -37.5t32.5 -60.5v-112q0 -81 -61.5 -112t-186.5 -31zM291 289
q-59 0 -77.5 -13t-18.5 -43v-88q0 -37 16 -48.5t79 -11.5t79 11.5t16 48.5v88q0 30 -17.5 43t-76.5 13zM290 382q46 0 62.5 13t16.5 40v75q0 28 -16.5 41t-62.5 13t-62.5 -13t-16.5 -41v-75q0 -27 16.5 -40t62.5 -13z" />
    <glyph glyph-name="nine" unicode="9" 
d="M526 480v-302q0 -103 -61.5 -145.5t-193.5 -42.5q-81 0 -185 10v104q123 -14 183 -14q75 0 93.5 17.5t18.5 75.5v61h-108q-48 0 -74 1.5t-58 9.5t-48 23t-27 43.5t-11 70.5v88q0 48 14.5 82t35.5 52.5t54.5 29t62.5 13t69 2.5q41 0 70 -2.5t62.5 -13t54 -29t34.5 -52.5
t14 -82zM381 341v152q0 47 -14 57.5t-78 10.5q-59 0 -74 -11t-15 -57v-99q0 -34 15 -43.5t75 -9.5h91z" />
    <glyph glyph-name="colon" unicode=":" horiz-adv-x="256" 
d="M206 346h-156v138h156v-138zM206 0h-156v138h156v-138z" />
    <glyph glyph-name="semicolon" unicode=";" horiz-adv-x="256" 
d="M206 346h-156v138h156v-138zM217 138l-94 -250h-104l46 250h152z" />
    <glyph glyph-name="less" unicode="&#x3c;" 
d="M510 106l-440 153v112l440 153v-111l-326 -98l326 -98v-111z" />
    <glyph glyph-name="equal" unicode="=" 
d="M510 364h-440v101h440v-101zM510 164h-440v101h440v-101z" />
    <glyph glyph-name="greater" unicode="&#x3e;" 
d="M510 259l-440 -153v111l326 98l-326 98v111l440 -153v-112z" />
    <glyph glyph-name="question" unicode="?" horiz-adv-x="529" 
d="M489 523v-96q0 -29 -17.5 -53.5t-43 -41.5t-51 -32.5t-43 -32.5t-17.5 -34v-45h-136v58q0 38 16 66.5t39 45t46 30.5t39 32.5t16 42.5v47q0 27 -19 37.5t-79 10.5q-46 0 -199 -24v109q128 16 218 16q47 0 79.5 -2.5t63 -11t48.5 -23t29 -39.5t11 -60zM327 0h-156v138h156
v-138z" />
    <glyph glyph-name="at" unicode="@" horiz-adv-x="787" 
d="M733 474v-243q0 -83 -129 -83h-31q-36 0 -67.5 10t-36.5 25q-16 -37 -94 -37q-86 0 -117.5 23.5t-31.5 98.5v113q0 73 35 97t134 24t129 -24t30 -97v-143q0 -14 9 -19t30 -5t29 4.5t8 19.5v233q0 110 -241 110q-33 0 -58.5 -1.5t-59 -8t-55 -17.5t-37 -32.5t-15.5 -50.5
v-297q0 -108 226 -108q66 0 240 24v-77q-172 -23 -242 -23q-332 0 -332 176v307q0 39 16.5 70t45 50.5t62 33t73 20.5t71.5 9.5t64 2.5q54 0 105 -7t109.5 -24.5t94.5 -57t36 -96.5zM451 271v104q0 42 -9.5 52.5t-49.5 10.5q-38 0 -48 -11t-10 -52v-114q0 -34 7.5 -40.5
t44.5 -6.5h11q36 0 45 8.5t9 48.5z" />
    <glyph glyph-name="A" unicode="A" horiz-adv-x="668" 
d="M666 0h-158l-58 171h-237l-57 -171h-154l240 649h190zM416 275l-82 244h-4l-82 -244h168z" />
    <glyph glyph-name="B" unicode="B" horiz-adv-x="635" 
d="M598 245v-100q0 -81 -65 -113t-193 -32h-270v649h263q138 0 187 -31t49 -108v-80q0 -28 -22 -52t-50 -32v-5q36 -4 68.5 -32t32.5 -64zM419 450v32q0 32 -15 44t-74 12h-104v-153h107q55 0 70.5 14t15.5 51zM442 166v52q0 36 -18.5 51t-65.5 15h-132v-173h111q57 0 81 13
t24 42z" />
    <glyph glyph-name="C" unicode="C" horiz-adv-x="597" 
d="M567 12q-110 -22 -210 -22q-40 0 -75.5 3.5t-79 15t-74 31t-51.5 55t-21 83.5v285q0 196 301 196q74 0 206 -22v-117q-119 28 -204 28q-34 0 -55.5 -2t-45 -10t-35 -25.5t-11.5 -45.5v-276q0 -88 161 -88q71 0 194 29v-118z" />
    <glyph glyph-name="D" unicode="D" horiz-adv-x="710" 
d="M654 452v-264q0 -110 -68 -149t-239 -39h-277v649h276q165 0 236.5 -41t71.5 -156zM498 188v267q0 47 -38 65t-115 18h-119v-427h114q90 0 124 13.5t34 63.5z" />
    <glyph glyph-name="E" unicode="E" horiz-adv-x="610" 
d="M575 0h-505v649h495v-111h-339v-149h306v-111h-306v-167h349v-111z" />
    <glyph glyph-name="F" unicode="F" horiz-adv-x="610" 
d="M575 538h-349v-159h316v-111h-316v-268h-156v649h505v-111z" />
    <glyph glyph-name="G" unicode="G" horiz-adv-x="705" 
d="M649 32q-50 -18 -127.5 -30t-142.5 -12q-54 0 -97.5 4.5t-87 17t-73 32.5t-47.5 54t-18 80v270q0 51 21 90t53 61t77 36.5t86.5 19t87.5 4.5q138 0 264 -21v-118q-119 28 -264 28q-169 0 -169 -98v-261q0 -50 47.5 -69t135.5 -19q49 0 105 15v151h-106v102h255v-337z" />
    <glyph glyph-name="H" unicode="H" horiz-adv-x="728" 
d="M658 0h-156v278h-276v-278h-156v649h156v-260h276v260h156v-649z" />
    <glyph glyph-name="I" unicode="I" horiz-adv-x="296" 
d="M226 0h-156v649h156v-649z" />
    <glyph glyph-name="J" unicode="J" horiz-adv-x="445" 
d="M377 649v-472q0 -105 -57 -146t-166 -41q-65 0 -135 10v114q74 -13 123 -13q79 0 79 71v477h156z" />
    <glyph glyph-name="K" unicode="K" horiz-adv-x="682" 
d="M683 0h-190l-263 344l243 305h183l-246 -302zM226 0h-156v649h156v-649z" />
    <glyph glyph-name="L" unicode="L" 
d="M545 0h-475v649h156v-538h319v-111z" />
    <glyph glyph-name="M" unicode="M" horiz-adv-x="889" 
d="M819 0h-141v480h-3l-164 -480h-125l-169 480h-4v-480h-143v649h222l160 -464l158 464h209v-649z" />
    <glyph glyph-name="N" unicode="N" horiz-adv-x="751" 
d="M681 0h-158l-314 450v-450h-139v649h158l314 -443v443h139v-649z" />
    <glyph glyph-name="O" unicode="O" horiz-adv-x="728" 
d="M672 462v-284q0 -55 -29 -94t-78 -58.5t-98 -27.5t-104 -8q-52 0 -97.5 6.5t-97 24.5t-82 58t-30.5 99v284q0 50 22.5 88t54 58t76.5 32.5t80 15.5t74 3q40 0 75.5 -3t80.5 -15.5t77 -32.5t54 -57.5t22 -88.5zM516 178v285q0 47 -38.5 66t-113.5 19q-76 0 -114 -18.5
t-38 -66.5v-285q0 -25 13 -41.5t37.5 -23.5t47 -9.5t55.5 -2.5t55.5 2.5t46.5 9.5t36.5 23.5t12.5 41.5z" />
    <glyph glyph-name="P" unicode="P" horiz-adv-x="627" 
d="M587 500v-123q0 -96 -64 -131t-211 -35h-86v-211h-156v649h260q138 0 197.5 -30.5t59.5 -118.5zM436 382v104q0 31 -24 41.5t-89 10.5h-97v-220h99q61 0 86 14.5t25 49.5z" />
    <glyph glyph-name="Q" unicode="Q" horiz-adv-x="740" 
d="M672 462v-177q0 -147 -82 -173h142v-112h-213q-17 0 -68 -5t-88 -5q-52 0 -97.5 6.5t-97 24.5t-82 58t-30.5 99v284q0 50 22.5 88t54 58t76.5 32.5t80 15.5t74 3q40 0 75.5 -3t80.5 -15.5t77 -32.5t54 -57.5t22 -88.5zM516 178v285q0 47 -38.5 66t-113.5 19
q-76 0 -114 -18.5t-38 -66.5v-285q0 -25 13 -41.5t37.5 -23.5t47 -9.5t55.5 -2.5t55.5 2.5t46.5 9.5t36.5 23.5t12.5 41.5z" />
    <glyph glyph-name="R" unicode="R" horiz-adv-x="668" 
d="M648 0h-180l-170 255h-72v-255h-156v649h292q128 0 187 -31t59 -106v-114q0 -59 -42.5 -91t-105.5 -40zM455 429v46q0 36 -21.5 49.5t-73.5 13.5h-134v-180h134q55 0 75 14.5t20 56.5z" />
    <glyph glyph-name="S" unicode="S" horiz-adv-x="606" 
d="M568 228v-43q0 -58 -21 -97.5t-62 -60t-89.5 -29t-115.5 -8.5q-93 0 -230 18v119q166 -26 232 -26q130 0 130 67v42q0 29 -17 47.5t-68 18.5h-76q-214 0 -214 170v48q0 84 70.5 124.5t225.5 40.5q75 0 203 -13v-116q-152 18 -208 18q-77 0 -106 -13t-29 -44v-46
q0 -51 86 -51h78q114 0 162.5 -42t48.5 -124z" />
    <glyph glyph-name="T" unicode="T" horiz-adv-x="595" 
d="M575 538h-199v-538h-156v538h-200v111h555v-111z" />
    <glyph glyph-name="U" unicode="U" horiz-adv-x="699" 
d="M631 649v-471q0 -188 -282 -188q-281 0 -281 188v471h156v-471q0 -44 29 -60.5t98 -16.5q68 0 96 16.5t28 60.5v471h156z" />
    <glyph glyph-name="V" unicode="V" horiz-adv-x="664" 
d="M664 649l-240 -649h-191l-233 649h158l174 -519h4l174 519h154z" />
    <glyph glyph-name="W" unicode="W" horiz-adv-x="985" 
d="M977 649l-208 -649h-154l-124 471l-128 -471h-154l-201 649h162l126 -474l126 474h145l136 -474l116 474h158z" />
    <glyph glyph-name="X" unicode="X" horiz-adv-x="677" 
d="M668 0h-181l-148 230l-149 -230h-180l239 331l-229 318h180l139 -216l138 216h180l-229 -318z" />
    <glyph glyph-name="Y" unicode="Y" horiz-adv-x="644" 
d="M636 649l-237 -387v-262h-156v260l-235 389h177l137 -254l136 254h178z" />
    <glyph glyph-name="Z" unicode="Z" horiz-adv-x="612" 
d="M576 0h-536v95l338 443h-328v111h520v-94l-338 -443h344v-112z" />
    <glyph glyph-name="bracketleft" unicode="[" horiz-adv-x="372" 
d="M362 -190h-262v926h262v-87h-119v-752h119v-87z" />
    <glyph glyph-name="backslash" unicode="\" horiz-adv-x="431" 
d="M421 -10h-87l-324 669h87z" />
    <glyph glyph-name="bracketright" unicode="]" horiz-adv-x="372" 
d="M272 -190h-262v87h119v752h-119v87h262v-926z" />
    <glyph glyph-name="asciicircum" unicode="^" horiz-adv-x="341" 
d="M321 453h-98l-53 187l-52 -187h-98l56 227h187z" />
    <glyph glyph-name="underscore" unicode="_" 
d="M509 -161h-438v101h438v-101z" />
    <glyph glyph-name="grave" unicode="`" horiz-adv-x="400" 
d="M324 553h-124l-125 127h159z" />
    <glyph glyph-name="a" unicode="a" horiz-adv-x="564" 
d="M500 0h-143v44q-16 -29 -46 -41.5t-110 -12.5q-98 0 -130 30t-32 125q0 86 33 119.5t118 33.5h164v33q0 44 -20.5 58.5t-86.5 14.5q-62 0 -170 -12v92q83 10 185 10q134 0 186 -32.5t52 -128.5v-333zM354 124v94h-100q-48 0 -60 -11t-12 -59q0 -47 12.5 -57t63.5 -10
q25 0 37 0.5t26 2.5t19.5 6.5t9.5 12.5t4 21z" />
    <glyph glyph-name="b" unicode="b" horiz-adv-x="610" 
d="M560 331v-159q0 -99 -59.5 -140.5t-191.5 -41.5q-139 0 -192 43.5t-53 138.5v528h146v-264q13 33 48.5 45.5t108.5 12.5q62 0 101 -10t59 -32.5t26.5 -49.5t6.5 -71zM414 153v179q0 47 -17.5 59.5t-86.5 12.5q-62 0 -81 -16t-19 -56v-179q0 -43 18.5 -57.5t82.5 -14.5
t83.5 14.5t19.5 57.5z" />
    <glyph glyph-name="c" unicode="c" horiz-adv-x="482" 
d="M464 7q-88 -17 -164 -17q-37 0 -59 1t-55.5 5.5t-54 15.5t-41 28.5t-30.5 47t-10 69.5v161q0 36 8.5 63.5t21 46t35 31.5t41.5 19.5t49.5 10.5t51 4.5t53.5 0.5q55 0 147 -18v-96q-104 24 -158 24q-101 0 -101 -68v-178q0 -77 111 -77q52 0 155 22v-96z" />
    <glyph glyph-name="d" unicode="d" horiz-adv-x="608" 
d="M544 0h-141v55q-17 -27 -31 -39.5t-42 -19t-80 -6.5q-124 0 -162 31t-38 138v189q0 82 46.5 114t146.5 32q72 0 101 -13.5t54 -50.5v270h146v-700zM398 145v195q0 36 -19.5 50t-83.5 14q-67 0 -83 -13t-16 -56v-185q0 -40 16 -54.5t75 -14.5q71 0 91 12.5t20 51.5z" />
    <glyph glyph-name="e" unicode="e" horiz-adv-x="559" 
d="M511 203h-314v-44q0 -41 29 -59.5t109 -18.5q72 0 162 21v-93q-92 -19 -190 -19q-257 0 -257 157v174q0 93 60 133t179 40q112 0 167 -38t55 -135v-118zM372 286v70q0 23 -18.5 35.5t-66.5 12.5q-53 0 -71.5 -12.5t-18.5 -35.5v-70h175z" />
    <glyph glyph-name="f" unicode="f" horiz-adv-x="388" 
d="M398 612q-60 8 -86 8q-36 0 -50.5 -11.5t-14.5 -43.5v-81h133v-90h-133v-394h-146v394h-91v90h91v73q0 89 45 121t143 32q42 0 109 -8v-90z" />
    <glyph glyph-name="g" unicode="g" horiz-adv-x="608" 
d="M544 484v-510q0 -106 -72.5 -150t-211.5 -44q-114 0 -175 7v98q98 -13 175 -13q73 0 105.5 23.5t32.5 80.5v78q-25 -37 -54 -50.5t-101 -13.5q-104 0 -148.5 31t-44.5 115v189q0 98 41 133.5t159 35.5q52 0 80 -6.5t42 -19t31 -39.5v55h141zM398 145v195q0 39 -20 51.5
t-91 12.5q-59 0 -75 -14.5t-16 -54.5v-185q0 -43 16 -56t83 -13q64 0 83.5 14t19.5 50z" />
    <glyph glyph-name="h" unicode="h" horiz-adv-x="595" 
d="M531 0h-146v338q0 40 -13.5 53t-64.5 13q-63 0 -80 -12.5t-17 -53.5v-338h-146v700h146v-275q14 69 153 69q96 0 132 -34.5t36 -104.5v-355z" />
    <glyph glyph-name="i" unicode="i" horiz-adv-x="282" 
d="M214 541h-146v118h146v-118zM214 0h-146v484h146v-484z" />
    <glyph glyph-name="j" unicode="j" horiz-adv-x="274" 
d="M210 484v-557q0 -86 -51.5 -116.5t-149.5 -30.5q-13 0 -47 2v95q6 -1 18 -1q54 0 69 14t15 70v524h146zM210 541h-146v118h146v-118z" />
    <glyph glyph-name="k" unicode="k" horiz-adv-x="540" 
d="M556 0h-165l-175 272l159 212h167l-168 -211zM210 0h-146v700h146v-700z" />
    <glyph glyph-name="l" unicode="l" horiz-adv-x="282" 
d="M214 0h-146v700h146v-700z" />
    <glyph glyph-name="m" unicode="m" horiz-adv-x="876" 
d="M812 0h-146v335q0 44 -10.5 56.5t-57.5 12.5q-60 0 -73.5 -12.5t-13.5 -56.5v-335h-146v335q0 44 -10.5 56.5t-57.5 12.5q-60 0 -73.5 -12.5t-13.5 -56.5v-335h-146v484h146v-59q14 69 143 69q69 0 103.5 -18t46.5 -54q12 37 45.5 54.5t105.5 17.5q95 0 126.5 -33.5
t31.5 -105.5v-355z" />
    <glyph glyph-name="n" unicode="n" horiz-adv-x="595" 
d="M531 0h-146v336q0 40 -13.5 54t-64.5 14q-63 0 -80 -13.5t-17 -54.5v-336h-146v484h144v-59q17 69 155 69q96 0 132 -34.5t36 -104.5v-355z" />
    <glyph glyph-name="o" unicode="o" horiz-adv-x="592" 
d="M542 309v-143q0 -47 -15 -80.5t-37 -52t-57.5 -28.5t-65 -12.5t-71.5 -2.5t-71.5 2.5t-65 12.5t-57.5 28.5t-37 52t-15 80.5v143q0 50 15.5 85.5t38 54.5t58.5 29.5t64.5 13t69.5 2.5t69.5 -2.5t64.5 -13t58.5 -29.5t38 -54.5t15.5 -85.5zM396 149v183q0 39 -20 55.5
t-80 16.5t-80 -16.5t-20 -55.5v-183q0 -38 19.5 -53t80.5 -15t80.5 15t19.5 53z" />
    <glyph glyph-name="p" unicode="p" horiz-adv-x="609" 
d="M559 331v-159q0 -108 -48 -145t-156 -37q-68 0 -101.5 11t-43.5 48v-257h-146v692h138v-48q13 32 51.5 45t112.5 13q62 0 101 -10t59 -32.5t26.5 -49.5t6.5 -71zM413 153v179q0 47 -17.5 59.5t-86.5 12.5q-62 0 -80.5 -16t-18.5 -56v-179q0 -43 18 -57.5t82 -14.5
t83.5 14.5t19.5 57.5z" />
    <glyph glyph-name="q" unicode="q" horiz-adv-x="608" 
d="M544 -208h-146v263q-24 -40 -49 -52.5t-99 -12.5q-124 0 -162 31t-38 138v169q0 100 48.5 133t198.5 33q59 0 100.5 -4t69 -15.5t43 -23.5t23 -36.5t9.5 -45.5t2 -59v-518zM398 145v192q0 36 -19.5 51.5t-83.5 15.5q-67 0 -83 -12t-16 -55v-187q0 -40 16 -54.5t75 -14.5
q71 0 91 12.5t20 51.5z" />
    <glyph glyph-name="r" unicode="r" horiz-adv-x="397" 
d="M381 373h-50q-60 0 -90.5 -18.5t-30.5 -63.5v-291h-146v484h139v-85q1 36 41.5 65.5t84.5 29.5h52v-121z" />
    <glyph glyph-name="s" unicode="s" horiz-adv-x="525" 
d="M481 189v-61q0 -36 -13.5 -62t-34 -40.5t-53.5 -22.5t-63.5 -10.5t-71.5 -2.5q-79 0 -191 15v97q139 -21 193 -21q43 0 66.5 8.5t23.5 33.5v30q0 23 -13 34.5t-56 11.5h-63q-76 0 -118.5 30.5t-42.5 89.5v59q0 66 63 91t178 25q48 0 172 -9v-93q-156 12 -176 12
q-61 0 -77 -8.5t-16 -32.5v-26q0 -12 12.5 -22t38.5 -10h64q178 0 178 -116z" />
    <glyph glyph-name="t" unicode="t" horiz-adv-x="407" 
d="M387 -5q-42 -5 -81 -5q-34 0 -59.5 2.5t-53 12t-45 25t-29 44t-11.5 67.5v253h-98v90h98v140h146v-140h133v-90h-133v-228q0 -50 15 -67.5t66 -17.5q17 0 52 5v-91z" />
    <glyph glyph-name="u" unicode="u" horiz-adv-x="595" 
d="M531 0h-144v59q-17 -69 -155 -69q-96 0 -132 34.5t-36 104.5v355h146v-335q0 -40 13.5 -54t64.5 -14q63 0 80 13.5t17 54.5v335h146v-484z" />
    <glyph glyph-name="v" unicode="v" horiz-adv-x="510" 
d="M510 484l-178 -484h-148l-184 484h155l106 -335l102 335h147z" />
    <glyph glyph-name="w" unicode="w" horiz-adv-x="822" 
d="M814 484l-158 -484h-148l-96 327l-94 -327h-148l-162 484h149l90 -351l96 351h143l100 -351l86 351h142z" />
    <glyph glyph-name="x" unicode="x" horiz-adv-x="568" 
d="M559 0h-169l-106 152l-105 -152h-169l190 248l-180 236h169l95 -139l96 139h169l-181 -236z" />
    <glyph glyph-name="y" unicode="y" horiz-adv-x="534" 
d="M526 484l-265 -692h-148l88 212l-193 480h159l109 -342l99 342h151z" />
    <glyph glyph-name="z" unicode="z" horiz-adv-x="512" 
d="M476 0h-436v78l244 311h-234v95h420v-78l-244 -311h250v-95z" />
    <glyph glyph-name="braceleft" unicode="{" horiz-adv-x="384" 
d="M364 -190h-103q-32 0 -57 6t-50.5 23t-39.5 53t-14 90v190q0 56 -10 68.5t-59 12.5h-23v92h23q49 0 59 12.5t10 68.5v138q0 54 14 90t39.5 53t50.5 23t57 6h103v-87h-60q-25 0 -43 -17t-18 -48v-143q0 -61 -16.5 -92.5t-62.5 -47.5v-4q46 -15 62.5 -46.5t16.5 -93.5v-195
q0 -31 18 -48t43 -17h60v-87z" />
    <glyph glyph-name="bar" unicode="|" horiz-adv-x="265" 
d="M161 -10h-57v669h57v-669z" />
    <glyph glyph-name="braceright" unicode="}" horiz-adv-x="384" 
d="M376 253h-23q-49 0 -59 -12.5t-10 -68.5v-190q0 -54 -14 -90t-39.5 -53t-50.5 -23t-57 -6h-103v87h60q25 0 43 17t18 48v195q0 62 16.5 93.5t62.5 46.5v4q-46 16 -62.5 47.5t-16.5 92.5v143q0 31 -18 48t-43 17h-60v87h103q32 0 57 -6t50.5 -23t39.5 -53t14 -90v-138
q0 -56 10 -68.5t59 -12.5h23v-92z" />
    <glyph glyph-name="asciitilde" unicode="~" 
d="M190 371q38 0 108.5 -29.5t94.5 -29.5q81 0 119 62v-101q-36 -46 -123 -46q-32 0 -102.5 29.5t-100.5 29.5q-42 0 -69.5 -14.5t-48.5 -46.5v101q37 45 122 45z" />
    <glyph glyph-name="exclamdown" unicode="&#xa1;" horiz-adv-x="295" 
d="M192 296l43 -461h-175l43 461h89zM70 484h156v-138h-156v138z" />
    <glyph glyph-name="cent" unicode="&#xa2;" horiz-adv-x="464" 
d="M446 90q-58 -10 -120 -15v-85h-82v83q-37 1 -63.5 4t-56.5 13t-48.5 27t-31 48.5t-12.5 74.5v161q0 55 16.5 91t49.5 53.5t66 24t80 7.5v82h82v-84q43 -3 113 -16v-97q-104 24 -167 24q-59 0 -75.5 -9.5t-16.5 -50.5v-208q0 -35 19.5 -43.5t82.5 -8.5q61 0 164 22v-98z
" />
    <glyph glyph-name="sterling" unicode="&#xa3;" 
d="M538 0h-496v111h101v172h-101v102h101v75q0 62 15 102t46.5 61t70 28.5t96.5 7.5q52 0 119 -8v-101q-58 9 -95 9q-73 0 -89.5 -13t-16.5 -71v-90h171v-102h-171v-172h249v-111z" />
    <glyph glyph-name="currency" unicode="&#xa4;" horiz-adv-x="520" 
d="M509 339q0 -86 -62 -163l54 -54l-26 -26l-54 54q-78 -61 -163 -61q-82 0 -158 59l-54 -54l-26 26l54 54q-62 77 -62 163t62 163l-54 54l26 26l54 -54q76 59 158 59q90 0 163 -57l54 54l26 -26l-54 -54q62 -77 62 -163zM469 339q0 84 -60.5 145t-145.5 61
q-88 0 -149.5 -59.5t-61.5 -148.5q0 -87 61.5 -147.5t148.5 -60.5q86 0 146.5 62t60.5 148z" />
    <glyph glyph-name="yen" unicode="&#xa5;" horiz-adv-x="647" 
d="M638 649l-177 -285h132v-101h-193v-67h193v-101h-193v-95h-153v95h-192v101h192v67h-192v101h130l-175 285h177l137 -254l136 254h178z" />
    <glyph glyph-name="brokenbar" unicode="&#xa6;" horiz-adv-x="265" 
d="M160 298h-55v351h55v-351zM160 -190h-55v351h55v-351z" />
    <glyph glyph-name="section" unicode="&#xa7;" 
d="M542 316v-47q0 -36 -21 -67.5t-46 -40.5q21 -6 34 -26.5t13 -42.5v-62q0 -47 -21 -78t-60.5 -44.5t-77.5 -18t-91 -4.5q-82 0 -204 14v109q122 -21 206 -21q24 0 38.5 1t31.5 4.5t25 12t8 21.5v48q0 7 -1.5 12t-6.5 11.5t-18.5 10t-34.5 3.5h-87q-88 0 -139.5 31.5
t-51.5 94.5v80q0 25 20 49.5t46 33.5q-19 10 -32.5 30.5t-13.5 40.5v66q0 67 65.5 94.5t188.5 27.5q23 0 185 -9v-102q-160 12 -189 12q-48 0 -73 -6t-28.5 -11t-3.5 -14v-51q0 -29 62 -29h95q88 0 135 -33.5t47 -99.5zM397 245v72q0 28 -71 28h-109q-34 0 -34 -26v-84
q0 -19 55 -19h104q35 0 45 6.5t10 22.5z" />
    <glyph glyph-name="dieresis" unicode="&#xa8;" horiz-adv-x="400" 
d="M358 565h-126v118h126v-118zM168 565h-126v118h126v-118z" />
    <glyph glyph-name="copyright" unicode="&#xa9;" horiz-adv-x="777" 
d="M727 474v-308q0 -43 -24 -76t-60 -51t-83.5 -30t-87.5 -15.5t-80 -3.5q-41 0 -81.5 3.5t-89.5 15t-85.5 30t-61 51.5t-24.5 76v307q0 39 17 70t47 50.5t64.5 33t75.5 20.5t73.5 9.5t64.5 2.5q41 0 80.5 -3.5t87.5 -15.5t83.5 -31t59.5 -54t24 -81zM618 174v297
q0 110 -225 110q-235 0 -235 -110v-297q0 -102 236 -102q31 0 53 1t57 6.5t57.5 15.5t39.5 30.5t17 48.5zM541 291v-28q0 -57 -31 -84t-118 -27q-89 0 -124 25.5t-35 95.5v116q0 61 37.5 91t121.5 30t116.5 -26.5t32.5 -84.5v-27h-103v19q0 28 -8 35.5t-41 7.5
q-27 0 -37.5 -10t-10.5 -43v-100q0 -35 8.5 -44t39.5 -9q33 0 41 6.5t8 36.5v20h103z" />
    <glyph glyph-name="ordfeminine" unicode="&#xaa;" horiz-adv-x="327" 
d="M288 412h-82v22q-9 -15 -24 -21t-54 -6q-50 0 -70.5 15.5t-20.5 61.5q0 42 20.5 59.5t64.5 17.5h82v31q0 12 -8 16.5t-30 4.5l-110 -4v46q84 4 117 4q62 0 88.5 -18t26.5 -63v-166zM204 469v52h-50q-23 0 -29.5 -7t-6.5 -31t6.5 -29.5t32.5 -5.5q28 0 37.5 3t9.5 18z" />
    <glyph glyph-name="guillemotleft" unicode="&#xab;" horiz-adv-x="526" 
d="M266 70h-126l-100 192l100 192h126l-92 -192zM486 70h-126l-100 192l100 192h126l-92 -192z" />
    <glyph glyph-name="logicalnot" unicode="&#xac;" 
d="M70 365h440v-281h-101v180h-339v101z" />
    <glyph glyph-name="uni00AD" unicode="&#xad;" horiz-adv-x="0" 
 />
    <glyph glyph-name="registered" unicode="&#xae;" horiz-adv-x="777" 
d="M727 474v-308q0 -43 -24 -76t-60 -51t-83.5 -30t-87.5 -15.5t-80 -3.5q-41 0 -81.5 3.5t-89.5 15t-85.5 30t-61 51.5t-24.5 76v307q0 39 17 70t47 50.5t64.5 33t75.5 20.5t73.5 9.5t64.5 2.5q41 0 80.5 -3.5t87.5 -15.5t83.5 -31t59.5 -54t24 -81zM618 174v297
q0 110 -225 110q-235 0 -235 -110v-297q0 -102 236 -102q31 0 53 1t57 6.5t57.5 15.5t39.5 30.5t17 48.5zM549 140h-106l-72 146h-22v-146h-98v369h147q80 0 108.5 -16t28.5 -60v-65q0 -35 -17.5 -50.5t-53.5 -24.5zM437 383v34q0 21 -7.5 27.5t-28.5 6.5h-52v-107h47
q27 0 34 7t7 32z" />
    <glyph glyph-name="macron" unicode="&#xaf;" horiz-adv-x="400" 
d="M339 560h-278v89h278v-89z" />
    <glyph glyph-name="degree" unicode="&#xb0;" horiz-adv-x="454" 
d="M414 543v-109q0 -37 -14.5 -61t-43 -35t-58 -15t-71.5 -4t-71.5 4t-58 15t-43 35t-14.5 61v109q0 34 13 57.5t29.5 35t46.5 17.5t48 7t50 1t50 -1t48 -7t46.5 -17.5t29.5 -35t13 -57.5zM303 434v107q0 27 -15 35.5t-61 8.5t-61 -8.5t-15 -35.5v-107q0 -22 15.5 -30.5
t60.5 -8.5t60.5 8.5t15.5 30.5z" />
    <glyph glyph-name="plusminus" unicode="&#xb1;" 
d="M510 0h-440v101h440v-101zM340 544v-179h170v-101h-170v-130h-101v130h-169v101h169v179h101z" />
    <glyph glyph-name="twosuperior" unicode="&#xb2;" horiz-adv-x="378" 
d="M340 273h-313v88q0 33 19.5 57t47.5 36t56 21t47.5 19t19.5 24v38q0 21 -55 21q-28 0 -127 -17v82q80 13 145 13q79 0 119 -22t40 -76v-42q0 -40 -30.5 -66t-67 -35t-67 -23t-30.5 -33v-5h196v-80z" />
    <glyph glyph-name="threesuperior" unicode="&#xb3;" horiz-adv-x="378" 
d="M333 419v-51q0 -54 -39.5 -76.5t-122.5 -22.5q-64 0 -120 7q-4 0 -15.5 1t-13.5 1v88l30 -6q65 -13 107 -13q29 0 40.5 6t11.5 24v34q0 18 -51 18h-87v75h87q36 0 36 25v28q0 13 -9 18t-38 5q-45 0 -125 -8v78l42 2q38 3 92 3q82 0 120.5 -17t38.5 -65v-53q0 -25 -26 -44
q42 -19 42 -57z" />
    <glyph glyph-name="acute" unicode="&#xb4;" horiz-adv-x="400" 
d="M324 680l-125 -127h-124l90 127h159z" />
    <glyph glyph-name="mu" unicode="&#xb5;" horiz-adv-x="595" 
d="M531 0h-144v59q-17 -69 -155 -69q-8 0 -22 2v-200h-146v692h146v-335q0 -40 13.5 -54t64.5 -14q63 0 80 13.5t17 54.5v335h146v-484z" />
    <glyph glyph-name="mu" unicode="&#x3bc;" horiz-adv-x="595" 
d="M531 0h-144v59q-17 -69 -155 -69q-8 0 -22 2v-200h-146v692h146v-335q0 -40 13.5 -54t64.5 -14q63 0 80 13.5t17 54.5v335h146v-484z" />
    <glyph glyph-name="paragraph" unicode="&#xb6;" horiz-adv-x="459" 
d="M419 633l-23 -17q-21 -16 -21 -37v-579h-53v606h-70v-606h-53v352q-100 0 -129.5 27.5t-29.5 121.5q0 86 22.5 117t84.5 31h272v-16z" />
    <glyph glyph-name="periodcentered" unicode="&#xb7;" horiz-adv-x="256" 
d="M197 262h-147v138h147v-138z" />
    <glyph glyph-name="cedilla" unicode="&#xb8;" horiz-adv-x="251" 
d="M102 0h70l-36 -50q41 -3 69 -21.5t28 -57.5q0 -45 -36.5 -68t-83.5 -23q-57 0 -91 23l22 46q30 -18 62 -18q47 0 47 35q0 38 -75 38h-40q2 4 32 48t32 48z" />
    <glyph glyph-name="onesuperior" unicode="&#xb9;" horiz-adv-x="378" 
d="M272 273h-119v263l-111 -57v92l137 78h93v-376z" />
    <glyph glyph-name="ordmasculine" unicode="&#xba;" horiz-adv-x="347" 
d="M308 566v-71q0 -29 -12 -48t-34 -27t-41.5 -10.5t-46.5 -2.5t-46.5 2.5t-41.5 10.5t-34 27t-12 48v71q0 31 12 51t34.5 28.5t42 11t45.5 2.5t45.5 -2.5t42 -11t34.5 -28.5t12 -51zM224 483v97q0 20 -10 28t-40 8t-40 -8t-10 -28v-97q0 -19 9.5 -25.5t40.5 -6.5t40.5 6.5
t9.5 25.5z" />
    <glyph glyph-name="guillemotright" unicode="&#xbb;" horiz-adv-x="526" 
d="M266 262l-100 -192h-126l92 192l-92 192h126zM486 262l-100 -192h-126l92 192l-92 192h126z" />
    <glyph glyph-name="onequarter" unicode="&#xbc;" horiz-adv-x="956" 
d="M344 273h-119v263l-111 -57v92l137 78h93v-376zM232 0l392 649h101l-392 -649h-101zM903 68h-43v-68h-110v68h-188v76l173 232h125v-230h43v-78zM750 146v121l-86 -121h86z" />
    <glyph glyph-name="onehalf" unicode="&#xbd;" horiz-adv-x="956" 
d="M344 273h-119v263l-111 -57v92l137 78h93v-376zM232 0l392 649h101l-392 -649h-101zM894 0h-313v88q0 33 19.5 57t47.5 36t56 21t47.5 19t19.5 24v38q0 21 -55 21q-28 0 -127 -17v82q80 13 145 13q79 0 119 -22t40 -76v-42q0 -40 -30.5 -66t-67 -35t-67 -23t-30.5 -33v-5
h196v-80z" />
    <glyph glyph-name="threequarters" unicode="&#xbe;" horiz-adv-x="956" 
d="M333 419v-51q0 -54 -39.5 -76.5t-122.5 -22.5q-64 0 -120 7q-4 0 -15.5 1t-13.5 1v88l30 -6q65 -13 107 -13q29 0 40.5 6t11.5 24v34q0 18 -51 18h-87v75h87q36 0 36 25v28q0 13 -9 18t-38 5q-45 0 -125 -8v78l42 2q38 3 92 3q82 0 120.5 -17t38.5 -65v-53q0 -25 -26 -44
q42 -19 42 -57zM903 68h-43v-68h-110v68h-188v76l173 232h125v-230h43v-78zM750 146v121l-86 -121h86zM232 0l392 649h101l-392 -649h-101z" />
    <glyph glyph-name="questiondown" unicode="&#xbf;" horiz-adv-x="529" 
d="M40 -39v96q0 29 17.5 53.5t43 41.5t51 32.5t43 32.5t17.5 34v45h136v-58q0 -38 -16 -66.5t-39 -45t-46 -30.5t-39 -32.5t-16 -42.5v-47q0 -27 19 -37.5t79 -10.5q46 0 199 24v-109q-128 -16 -218 -16q-47 0 -79.5 2.5t-63 11t-48.5 23t-29 39.5t-11 60zM202 484h156v-138
h-156v138z" />
    <glyph glyph-name="Agrave" unicode="&#xc0;" horiz-adv-x="668" 
d="M666 0h-158l-58 171h-237l-57 -171h-154l240 649h190zM416 275l-82 244h-4l-82 -244h168zM409 693h-124l-125 127h159z" />
    <glyph glyph-name="Aacute" unicode="&#xc1;" horiz-adv-x="668" 
d="M666 0h-158l-58 171h-237l-57 -171h-154l240 649h190zM416 275l-82 244h-4l-82 -244h168zM519 830l-125 -127h-124l90 127h159z" />
    <glyph glyph-name="Acircumflex" unicode="&#xc2;" horiz-adv-x="668" 
d="M666 0h-158l-58 171h-237l-57 -171h-154l240 649h190zM416 275l-82 244h-4l-82 -244h168zM491 703h-98l-53 87l-52 -87h-98l56 127h187z" />
    <glyph glyph-name="Atilde" unicode="&#xc3;" horiz-adv-x="668" 
d="M666 0h-158l-58 171h-237l-57 -171h-154l240 649h190zM416 275l-82 244h-4l-82 -244h168zM511 830q-1 -114 -110 -114q-30 0 -70.5 20.5t-41.5 20.5q-34 0 -36 -30h-73q1 59 31 82.5t85 23.5q28 0 65.5 -19t44.5 -19q33 0 33 35h72z" />
    <glyph glyph-name="Adieresis" unicode="&#xc4;" horiz-adv-x="668" 
d="M666 0h-158l-58 171h-237l-57 -171h-154l240 649h190zM416 275l-82 244h-4l-82 -244h168zM491 715h-126v118h126v-118zM301 715h-126v118h126v-118z" />
    <glyph glyph-name="Aring" unicode="&#xc5;" horiz-adv-x="652" 
d="M667 0h-158l-58 171h-237l-58 -171h-153l211 571q-38 23 -38 78v32q0 35 12.5 57.5t38.5 32t48.5 12t59.5 2.5t59.5 -2.5t48.5 -12t38.5 -32t12.5 -57.5v-32q0 -52 -34 -75zM405 642v37q0 29 -12 36.5t-58 7.5t-58 -7.5t-12 -36.5v-37q0 -24 14.5 -31.5t55.5 -7.5
t55.5 7.5t14.5 31.5zM417 275l-82 244h-5l-82 -244h169z" />
    <glyph glyph-name="AE" unicode="&#xc6;" horiz-adv-x="990" 
d="M955 0h-485v171h-225l-79 -171h-166l330 649h615v-111h-322v-149h289v-111h-289v-167h332v-111zM470 275v263h-57l-121 -263h178z" />
    <glyph glyph-name="Ccedilla" unicode="&#xc7;" horiz-adv-x="597" 
d="M567 12q-102 -20 -181 -22l-29 -40q41 -3 69 -21.5t28 -57.5q0 -45 -36.5 -68t-83.5 -23q-56 0 -91 23l22 46q30 -18 62 -18q47 0 47 35q0 38 -75 38h-40q1 3 12 19.5t25.5 37.5t20.5 30q-261 14 -261 187v285q0 196 301 196q74 0 206 -22v-117q-119 28 -204 28
q-34 0 -55.5 -2t-45 -10t-35 -25.5t-11.5 -45.5v-276q0 -88 161 -88q71 0 194 29v-118z" />
    <glyph glyph-name="Egrave" unicode="&#xc8;" horiz-adv-x="610" 
d="M575 0h-505v649h495v-111h-339v-149h306v-111h-306v-167h349v-111zM413 718h-124l-125 127h159z" />
    <glyph glyph-name="Eacute" unicode="&#xc9;" horiz-adv-x="610" 
d="M575 0h-505v649h495v-111h-339v-149h306v-111h-306v-167h349v-111zM472 845l-125 -127h-124l90 127h159z" />
    <glyph glyph-name="Ecircumflex" unicode="&#xca;" horiz-adv-x="610" 
d="M575 0h-505v649h495v-111h-339v-149h306v-111h-306v-167h349v-111zM455 718h-98l-53 87l-52 -87h-98l56 127h187z" />
    <glyph glyph-name="Edieresis" unicode="&#xcb;" horiz-adv-x="610" 
d="M575 0h-505v649h495v-111h-339v-149h306v-111h-306v-167h349v-111zM463 730h-126v118h126v-118zM273 730h-126v118h126v-118z" />
    <glyph glyph-name="Igrave" unicode="&#xcc;" horiz-adv-x="296" 
d="M226 0h-156v649h156v-649zM273 718h-124l-125 127h159z" />
    <glyph glyph-name="Iacute" unicode="&#xcd;" horiz-adv-x="296" 
d="M226 0h-156v649h156v-649zM273 845l-125 -127h-124l90 127h159z" />
    <glyph glyph-name="Icircumflex" unicode="&#xce;" horiz-adv-x="296" 
d="M226 0h-156v649h156v-649zM299 718h-98l-53 87l-52 -87h-98l56 127h187z" />
    <glyph glyph-name="Idieresis" unicode="&#xcf;" horiz-adv-x="296" 
d="M226 0h-156v649h156v-649zM306 730h-126v118h126v-118zM116 730h-126v118h126v-118z" />
    <glyph glyph-name="Eth" unicode="&#xd0;" horiz-adv-x="677" 
d="M10 385h338v-101h-338v101zM654 452v-264q0 -110 -68 -149t-239 -39h-277v649h276q165 0 236.5 -41t71.5 -156zM498 188v267q0 47 -38 65t-115 18h-119v-427h114q90 0 124 13.5t34 63.5z" />
    <glyph glyph-name="Ntilde" unicode="&#xd1;" horiz-adv-x="751" 
d="M681 0h-158l-314 450v-450h-139v649h158l314 -443v443h139v-649zM438 824q28 0 41 33l41 -24q-7 -24 -31 -53t-60 -29q-25 0 -65 16.5t-51 16.5q-29 0 -42 -33l-40 24q6 23 30.5 51t60.5 28q23 0 61.5 -15t54.5 -15z" />
    <glyph glyph-name="Ograve" unicode="&#xd2;" horiz-adv-x="728" 
d="M672 462v-284q0 -55 -29 -94t-78 -58.5t-98 -27.5t-104 -8q-52 0 -97.5 6.5t-97 24.5t-82 58t-30.5 99v284q0 50 22.5 88t54 58t76.5 32.5t80 15.5t74 3q40 0 75.5 -3t80.5 -15.5t77 -32.5t54 -57.5t22 -88.5zM516 178v285q0 47 -38.5 66t-113.5 19q-76 0 -114 -18.5
t-38 -66.5v-285q0 -25 13 -41.5t37.5 -23.5t47 -9.5t55.5 -2.5t55.5 2.5t46.5 9.5t36.5 23.5t12.5 41.5zM434 718h-124l-125 127h159z" />
    <glyph glyph-name="Oacute" unicode="&#xd3;" horiz-adv-x="728" 
d="M672 462v-284q0 -55 -29 -94t-78 -58.5t-98 -27.5t-104 -8q-52 0 -97.5 6.5t-97 24.5t-82 58t-30.5 99v284q0 50 22.5 88t54 58t76.5 32.5t80 15.5t74 3q40 0 75.5 -3t80.5 -15.5t77 -32.5t54 -57.5t22 -88.5zM516 178v285q0 47 -38.5 66t-113.5 19q-76 0 -114 -18.5
t-38 -66.5v-285q0 -25 13 -41.5t37.5 -23.5t47 -9.5t55.5 -2.5t55.5 2.5t46.5 9.5t36.5 23.5t12.5 41.5zM520 845l-125 -127h-124l90 127h159z" />
    <glyph glyph-name="Ocircumflex" unicode="&#xd4;" horiz-adv-x="728" 
d="M672 462v-284q0 -55 -29 -94t-78 -58.5t-98 -27.5t-104 -8q-52 0 -97.5 6.5t-97 24.5t-82 58t-30.5 99v284q0 50 22.5 88t54 58t76.5 32.5t80 15.5t74 3q40 0 75.5 -3t80.5 -15.5t77 -32.5t54 -57.5t22 -88.5zM516 178v285q0 47 -38.5 66t-113.5 19q-76 0 -114 -18.5
t-38 -66.5v-285q0 -25 13 -41.5t37.5 -23.5t47 -9.5t55.5 -2.5t55.5 2.5t46.5 9.5t36.5 23.5t12.5 41.5zM514 718h-98l-53 87l-52 -87h-98l56 127h187z" />
    <glyph glyph-name="Otilde" unicode="&#xd5;" horiz-adv-x="728" 
d="M672 462v-284q0 -55 -29 -94t-78 -58.5t-98 -27.5t-104 -8q-52 0 -97.5 6.5t-97 24.5t-82 58t-30.5 99v284q0 50 22.5 88t54 58t76.5 32.5t80 15.5t74 3q40 0 75.5 -3t80.5 -15.5t77 -32.5t54 -57.5t22 -88.5zM516 178v285q0 47 -38.5 66t-113.5 19q-76 0 -114 -18.5
t-38 -66.5v-285q0 -25 13 -41.5t37.5 -23.5t47 -9.5t55.5 -2.5t55.5 2.5t46.5 9.5t36.5 23.5t12.5 41.5zM426 824q28 0 41 33l41 -24q-7 -24 -31 -53t-60 -29q-25 0 -65 16.5t-51 16.5q-29 0 -42 -33l-40 24q6 23 30.5 51t60.5 28q23 0 61.5 -15t54.5 -15z" />
    <glyph glyph-name="Odieresis" unicode="&#xd6;" horiz-adv-x="728" 
d="M672 462v-284q0 -55 -29 -94t-78 -58.5t-98 -27.5t-104 -8q-52 0 -97.5 6.5t-97 24.5t-82 58t-30.5 99v284q0 50 22.5 88t54 58t76.5 32.5t80 15.5t74 3q40 0 75.5 -3t80.5 -15.5t77 -32.5t54 -57.5t22 -88.5zM516 178v285q0 47 -38.5 66t-113.5 19q-76 0 -114 -18.5
t-38 -66.5v-285q0 -25 13 -41.5t37.5 -23.5t47 -9.5t55.5 -2.5t55.5 2.5t46.5 9.5t36.5 23.5t12.5 41.5zM522 730h-126v118h126v-118zM332 730h-126v118h126v-118z" />
    <glyph glyph-name="multiply" unicode="&#xd7;" 
d="M142 533l147 -148l149 149l71 -72l-148 -148l148 -148l-71 -72l-149 148l-147 -147l-72 71l148 148l-148 148z" />
    <glyph glyph-name="Oslash" unicode="&#xd8;" horiz-adv-x="728" 
d="M672 462v-284q0 -55 -29 -94t-78 -58.5t-98 -27.5t-104 -8q-52 0 -97.5 6.5t-97 24.5t-82 58t-30.5 99v284q0 50 22.5 88t54 58t76.5 32.5t80 15.5t74 3q40 0 75.5 -3t80.5 -15.5t77 -32.5t54 -57.5t22 -88.5zM516 178v285l-260 -348q35 -14 109 -14q33 0 55.5 2.5
t46.5 9.5t36.5 23.5t12.5 41.5zM212 463v-274l256 344q-35 15 -104 15q-76 0 -114 -18.5t-38 -66.5z" />
    <glyph glyph-name="Ugrave" unicode="&#xd9;" horiz-adv-x="699" 
d="M631 649v-471q0 -188 -282 -188q-281 0 -281 188v471h156v-471q0 -44 29 -60.5t98 -16.5q68 0 96 16.5t28 60.5v471h156zM423 718h-124l-125 127h159z" />
    <glyph glyph-name="Uacute" unicode="&#xda;" horiz-adv-x="699" 
d="M631 649v-471q0 -188 -282 -188q-281 0 -281 188v471h156v-471q0 -44 29 -60.5t98 -16.5q68 0 96 16.5t28 60.5v471h156zM519 845l-125 -127h-124l90 127h159z" />
    <glyph glyph-name="Ucircumflex" unicode="&#xdb;" horiz-adv-x="699" 
d="M631 649v-471q0 -188 -282 -188q-281 0 -281 188v471h156v-471q0 -44 29 -60.5t98 -16.5q68 0 96 16.5t28 60.5v471h156zM500 718h-98l-53 87l-52 -87h-98l56 127h187z" />
    <glyph glyph-name="Udieresis" unicode="&#xdc;" horiz-adv-x="699" 
d="M631 649v-471q0 -188 -282 -188q-281 0 -281 188v471h156v-471q0 -44 29 -60.5t98 -16.5q68 0 96 16.5t28 60.5v471h156zM507 730h-126v118h126v-118zM317 730h-126v118h126v-118z" />
    <glyph glyph-name="Yacute" unicode="&#xdd;" horiz-adv-x="644" 
d="M636 649l-237 -387v-262h-156v260l-235 389h177l137 -254l136 254h178zM485 845l-125 -127h-124l90 127h159z" />
    <glyph glyph-name="Thorn" unicode="&#xde;" horiz-adv-x="627" 
d="M587 271q0 -166 -275 -166h-86v-105h-156v649h156v-110h104q56 0 97.5 -5.5t80 -20t59 -44t20.5 -74.5v-124zM436 271v119q0 30 -23 38.5t-90 8.5h-97v-229h99q111 0 111 63z" />
    <glyph glyph-name="germandbls" unicode="&#xdf;" horiz-adv-x="639" 
d="M589 265v-120q0 -81 -65 -113t-193 -32h-54v111h54q64 0 87.5 11t23.5 45v78q0 38 -17.5 48.5t-72.5 10.5h-75v98h50q52 0 72 12.5t20 45.5v95q0 30 -19 42t-76 12q-72 0 -93 -9.5t-21 -44.5v-555h-146v569q0 53 17.5 81t75 44t167.5 16q130 0 183 -35.5t53 -105.5v-119
q0 -28 -21.5 -52t-49.5 -32l-1 -5q36 -4 68.5 -32t32.5 -64z" />
    <glyph glyph-name="agrave" unicode="&#xe0;" horiz-adv-x="564" 
d="M500 0h-143v44q-16 -29 -46 -41.5t-110 -12.5q-98 0 -130 30t-32 125q0 86 33 119.5t118 33.5h164v33q0 44 -20.5 58.5t-86.5 14.5q-62 0 -170 -12v92q83 10 185 10q134 0 186 -32.5t52 -128.5v-333zM354 124v94h-100q-48 0 -60 -11t-12 -59q0 -47 12.5 -57t63.5 -10
q25 0 37 0.5t26 2.5t19.5 6.5t9.5 12.5t4 21zM368 553h-124l-125 127h159z" />
    <glyph glyph-name="aacute" unicode="&#xe1;" horiz-adv-x="564" 
d="M500 0h-143v44q-16 -29 -46 -41.5t-110 -12.5q-98 0 -130 30t-32 125q0 86 33 119.5t118 33.5h164v33q0 44 -20.5 58.5t-86.5 14.5q-62 0 -170 -12v92q83 10 185 10q134 0 186 -32.5t52 -128.5v-333zM354 124v94h-100q-48 0 -60 -11t-12 -59q0 -47 12.5 -57t63.5 -10
q25 0 37 0.5t26 2.5t19.5 6.5t9.5 12.5t4 21zM427 680l-125 -127h-124l90 127h159z" />
    <glyph glyph-name="acircumflex" unicode="&#xe2;" horiz-adv-x="564" 
d="M500 0h-143v44q-16 -29 -46 -41.5t-110 -12.5q-98 0 -130 30t-32 125q0 86 33 119.5t118 33.5h164v33q0 44 -20.5 58.5t-86.5 14.5q-62 0 -170 -12v92q83 10 185 10q134 0 186 -32.5t52 -128.5v-333zM354 124v94h-100q-48 0 -60 -11t-12 -59q0 -47 12.5 -57t63.5 -10
q25 0 37 0.5t26 2.5t19.5 6.5t9.5 12.5t4 21zM432 553h-98l-53 87l-52 -87h-98l56 127h187z" />
    <glyph glyph-name="atilde" unicode="&#xe3;" horiz-adv-x="564" 
d="M500 0h-143v44q-16 -29 -46 -41.5t-110 -12.5q-98 0 -130 30t-32 125q0 86 33 119.5t118 33.5h164v33q0 44 -20.5 58.5t-86.5 14.5q-62 0 -170 -12v92q83 10 185 10q134 0 186 -32.5t52 -128.5v-333zM354 124v94h-100q-48 0 -60 -11t-12 -59q0 -47 12.5 -57t63.5 -10
q25 0 37 0.5t26 2.5t19.5 6.5t9.5 12.5t4 21zM344 659q28 0 41 33l41 -24q-7 -24 -31 -53t-60 -29q-25 0 -65 16.5t-51 16.5q-29 0 -42 -33l-40 24q6 23 30.5 51t60.5 28q23 0 61.5 -15t54.5 -15z" />
    <glyph glyph-name="adieresis" unicode="&#xe4;" horiz-adv-x="564" 
d="M500 0h-143v44q-16 -29 -46 -41.5t-110 -12.5q-98 0 -130 30t-32 125q0 86 33 119.5t118 33.5h164v33q0 44 -20.5 58.5t-86.5 14.5q-62 0 -170 -12v92q83 10 185 10q134 0 186 -32.5t52 -128.5v-333zM354 124v94h-100q-48 0 -60 -11t-12 -59q0 -47 12.5 -57t63.5 -10
q25 0 37 0.5t26 2.5t19.5 6.5t9.5 12.5t4 21zM440 565h-126v118h126v-118zM250 565h-126v118h126v-118z" />
    <glyph glyph-name="aring" unicode="&#xe5;" horiz-adv-x="564" 
d="M500 0h-143v44q-16 -29 -46 -41.5t-110 -12.5q-98 0 -130 30t-32 125q0 86 33 119.5t118 33.5h164v33q0 44 -20.5 58.5t-86.5 14.5q-62 0 -170 -12v92q83 10 185 10q134 0 186 -32.5t52 -128.5v-333zM354 124v94h-100q-48 0 -60 -11t-12 -59q0 -47 12.5 -57t63.5 -10
q25 0 37 0.5t26 2.5t19.5 6.5t9.5 12.5t4 21zM431 651q0 -33 -11 -54t-34.5 -30t-45.5 -11.5t-58 -2.5t-58 2.5t-45.5 11.5t-34.5 30t-11 54v12q0 29 8.5 49t20.5 30.5t33.5 16.5t39.5 7t47 1t47 -1t39.5 -7t33.5 -16.5t20.5 -30.5t8.5 -49v-12zM352 644v27q0 29 -12 36.5
t-58 7.5t-58 -7.5t-12 -36.5v-27q0 -24 14.5 -31.5t55.5 -7.5t55.5 7.5t14.5 31.5z" />
    <glyph glyph-name="ae" unicode="&#xe6;" horiz-adv-x="845" 
d="M797 203h-309v-44q0 -41 28 -59.5t108 -18.5q70 0 160 21v-93q-92 -19 -188 -19q-174 0 -222 77q-23 -45 -56.5 -61t-116.5 -16q-98 0 -130 30t-32 125q0 86 33 119.5t118 33.5h164v33q0 44 -20.5 58.5t-86.5 14.5q-62 0 -170 -12v92q83 10 185 10q112 0 161 -31
q52 31 155 31q111 0 165 -38t54 -135v-118zM354 124v94h-100q-48 0 -60 -11t-12 -59q0 -47 12.5 -57t63.5 -10q25 0 37 0.5t26 2.5t19.5 6.5t9.5 12.5t4 21zM659 286v70q0 24 -17.5 36t-65.5 12q-53 0 -70.5 -12t-17.5 -36v-70h171z" />
    <glyph glyph-name="ccedilla" unicode="&#xe7;" horiz-adv-x="482" 
d="M464 7q-82 -15 -144 -16l-29 -41q41 -3 69 -21.5t28 -57.5q0 -45 -36.5 -68t-83.5 -23q-56 0 -91 23l22 46q30 -18 62 -18q47 0 47 35q0 38 -75 38h-40q1 3 11.5 18.5t26 38.5t20.5 30q-43 1 -74.5 7.5t-62.5 23t-47.5 50.5t-16.5 85v161q0 36 8.5 63.5t21 46t35 31.5
t41.5 19.5t49.5 10.5t51 4.5t53.5 0.5q55 0 147 -18v-96q-104 24 -158 24q-101 0 -101 -68v-178q0 -77 111 -77q52 0 155 22v-96z" />
    <glyph glyph-name="egrave" unicode="&#xe8;" horiz-adv-x="559" 
d="M511 203h-314v-44q0 -41 29 -59.5t109 -18.5q72 0 162 21v-93q-92 -19 -190 -19q-257 0 -257 157v174q0 93 60 133t179 40q112 0 167 -38t55 -135v-118zM372 286v70q0 23 -18.5 35.5t-66.5 12.5q-53 0 -71.5 -12.5t-18.5 -35.5v-70h175zM353 553h-124l-125 127h159z" />
    <glyph glyph-name="eacute" unicode="&#xe9;" horiz-adv-x="559" 
d="M511 203h-314v-44q0 -41 29 -59.5t109 -18.5q72 0 162 21v-93q-92 -19 -190 -19q-257 0 -257 157v174q0 93 60 133t179 40q112 0 167 -38t55 -135v-118zM372 286v70q0 23 -18.5 35.5t-66.5 12.5q-53 0 -71.5 -12.5t-18.5 -35.5v-70h175zM461 680l-125 -127h-124l90 127
h159z" />
    <glyph glyph-name="ecircumflex" unicode="&#xea;" horiz-adv-x="559" 
d="M511 203h-314v-44q0 -41 29 -59.5t109 -18.5q72 0 162 21v-93q-92 -19 -190 -19q-257 0 -257 157v174q0 93 60 133t179 40q112 0 167 -38t55 -135v-118zM372 286v70q0 23 -18.5 35.5t-66.5 12.5q-53 0 -71.5 -12.5t-18.5 -35.5v-70h175zM438 553h-98l-53 87l-52 -87h-98
l56 127h187z" />
    <glyph glyph-name="edieresis" unicode="&#xeb;" horiz-adv-x="559" 
d="M511 203h-314v-44q0 -41 29 -59.5t109 -18.5q72 0 162 21v-93q-92 -19 -190 -19q-257 0 -257 157v174q0 93 60 133t179 40q112 0 167 -38t55 -135v-118zM372 286v70q0 23 -18.5 35.5t-66.5 12.5q-53 0 -71.5 -12.5t-18.5 -35.5v-70h175zM437 565h-126v118h126v-118z
M247 565h-126v118h126v-118z" />
    <glyph glyph-name="igrave" unicode="&#xec;" horiz-adv-x="282" 
d="M214 0h-146v484h146v-484zM266 553h-124l-125 127h159z" />
    <glyph glyph-name="iacute" unicode="&#xed;" horiz-adv-x="282" 
d="M214 0h-146v484h146v-484zM266 680l-125 -127h-124l90 127h159z" />
    <glyph glyph-name="icircumflex" unicode="&#xee;" horiz-adv-x="282" 
d="M214 0h-146v484h146v-484zM292 553h-98l-53 87l-52 -87h-98l56 127h187z" />
    <glyph glyph-name="idieresis" unicode="&#xef;" horiz-adv-x="282" 
d="M214 0h-146v484h146v-484zM299 565h-126v118h126v-118zM109 565h-126v118h126v-118z" />
    <glyph glyph-name="eth" unicode="&#xf0;" horiz-adv-x="592" 
d="M219 555v67l53 16q-20 22 -60 62h142q15 -14 29 -29l97 29v-67l-50 -15q112 -140 112 -297v-155q0 -47 -15 -80.5t-37 -52t-57.5 -28.5t-65 -12.5t-71.5 -2.5t-71.5 2.5t-65 12.5t-57.5 28.5t-37 52t-15 80.5v143q0 50 15.5 85.5t38 54.5t58.5 29.5t64.5 13t69.5 2.5
q44 0 80 -4q-25 48 -60 94zM396 149v183q0 39 -20 55.5t-80 16.5t-80 -16.5t-20 -55.5v-183q0 -38 19.5 -53t80.5 -15t80.5 15t19.5 53z" />
    <glyph glyph-name="ntilde" unicode="&#xf1;" horiz-adv-x="595" 
d="M531 0h-146v336q0 40 -13.5 54t-64.5 14q-63 0 -80 -13.5t-17 -54.5v-336h-146v484h144v-59q17 69 155 69q96 0 132 -34.5t36 -104.5v-355zM360 659q28 0 41 33l41 -24q-7 -24 -31 -53t-60 -29q-25 0 -65 16.5t-51 16.5q-29 0 -42 -33l-40 24q6 23 30.5 51t60.5 28
q23 0 61.5 -15t54.5 -15z" />
    <glyph glyph-name="ograve" unicode="&#xf2;" horiz-adv-x="592" 
d="M542 309v-143q0 -47 -15 -80.5t-37 -52t-57.5 -28.5t-65 -12.5t-71.5 -2.5t-71.5 2.5t-65 12.5t-57.5 28.5t-37 52t-15 80.5v143q0 50 15.5 85.5t38 54.5t58.5 29.5t64.5 13t69.5 2.5t69.5 -2.5t64.5 -13t58.5 -29.5t38 -54.5t15.5 -85.5zM396 149v183q0 39 -20 55.5
t-80 16.5t-80 -16.5t-20 -55.5v-183q0 -38 19.5 -53t80.5 -15t80.5 15t19.5 53zM365 553h-124l-125 127h159z" />
    <glyph glyph-name="oacute" unicode="&#xf3;" horiz-adv-x="592" 
d="M542 309v-143q0 -47 -15 -80.5t-37 -52t-57.5 -28.5t-65 -12.5t-71.5 -2.5t-71.5 2.5t-65 12.5t-57.5 28.5t-37 52t-15 80.5v143q0 50 15.5 85.5t38 54.5t58.5 29.5t64.5 13t69.5 2.5t69.5 -2.5t64.5 -13t58.5 -29.5t38 -54.5t15.5 -85.5zM396 149v183q0 39 -20 55.5
t-80 16.5t-80 -16.5t-20 -55.5v-183q0 -38 19.5 -53t80.5 -15t80.5 15t19.5 53zM474 680l-125 -127h-124l90 127h159z" />
    <glyph glyph-name="ocircumflex" unicode="&#xf4;" horiz-adv-x="592" 
d="M542 309v-143q0 -47 -15 -80.5t-37 -52t-57.5 -28.5t-65 -12.5t-71.5 -2.5t-71.5 2.5t-65 12.5t-57.5 28.5t-37 52t-15 80.5v143q0 50 15.5 85.5t38 54.5t58.5 29.5t64.5 13t69.5 2.5t69.5 -2.5t64.5 -13t58.5 -29.5t38 -54.5t15.5 -85.5zM396 149v183q0 39 -20 55.5
t-80 16.5t-80 -16.5t-20 -55.5v-183q0 -38 19.5 -53t80.5 -15t80.5 15t19.5 53zM446 553h-98l-53 87l-52 -87h-98l56 127h187z" />
    <glyph glyph-name="otilde" unicode="&#xf5;" horiz-adv-x="592" 
d="M542 309v-143q0 -47 -15 -80.5t-37 -52t-57.5 -28.5t-65 -12.5t-71.5 -2.5t-71.5 2.5t-65 12.5t-57.5 28.5t-37 52t-15 80.5v143q0 50 15.5 85.5t38 54.5t58.5 29.5t64.5 13t69.5 2.5t69.5 -2.5t64.5 -13t58.5 -29.5t38 -54.5t15.5 -85.5zM396 149v183q0 39 -20 55.5
t-80 16.5t-80 -16.5t-20 -55.5v-183q0 -38 19.5 -53t80.5 -15t80.5 15t19.5 53zM358 659q28 0 41 33l41 -24q-7 -24 -31 -53t-60 -29q-25 0 -65 16.5t-51 16.5q-29 0 -42 -33l-40 24q6 23 30.5 51t60.5 28q23 0 61.5 -15t54.5 -15z" />
    <glyph glyph-name="odieresis" unicode="&#xf6;" horiz-adv-x="592" 
d="M542 309v-143q0 -47 -15 -80.5t-37 -52t-57.5 -28.5t-65 -12.5t-71.5 -2.5t-71.5 2.5t-65 12.5t-57.5 28.5t-37 52t-15 80.5v143q0 50 15.5 85.5t38 54.5t58.5 29.5t64.5 13t69.5 2.5t69.5 -2.5t64.5 -13t58.5 -29.5t38 -54.5t15.5 -85.5zM396 149v183q0 39 -20 55.5
t-80 16.5t-80 -16.5t-20 -55.5v-183q0 -38 19.5 -53t80.5 -15t80.5 15t19.5 53zM454 565h-126v118h126v-118zM264 565h-126v118h126v-118z" />
    <glyph glyph-name="divide" unicode="&#xf7;" 
d="M510 264h-440v101h440v-101zM358 426h-136v128h136v-128zM358 70h-136v128h136v-128z" />
    <glyph glyph-name="oslash" unicode="&#xf8;" horiz-adv-x="597" 
d="M546 166q0 -47 -15.5 -80.5t-37.5 -52t-58 -28.5t-65.5 -12.5t-71.5 -2.5t-71.5 2.5t-65.5 12.5t-58 28.5t-37.5 52t-15.5 80.5v143q0 50 16 85.5t38.5 54.5t58.5 29.5t65 13t70 2.5t70 -2.5t65 -13t58.5 -29.5t38.5 -54.5t16 -85.5v-143zM359 404q-21 7 -61 7
q-61 0 -81.5 -16.5t-20.5 -56.5v-187zM400 141v189l-161 -250q17 -5 59 -5q62 0 82 13.5t20 52.5z" />
    <glyph glyph-name="ugrave" unicode="&#xf9;" horiz-adv-x="595" 
d="M531 0h-144v59q-17 -69 -155 -69q-96 0 -132 34.5t-36 104.5v355h146v-335q0 -40 13.5 -54t64.5 -14q63 0 80 13.5t17 54.5v335h146v-484zM422 553h-124l-125 127h159z" />
    <glyph glyph-name="uacute" unicode="&#xfa;" horiz-adv-x="595" 
d="M531 0h-144v59q-17 -69 -155 -69q-96 0 -132 34.5t-36 104.5v355h146v-335q0 -40 13.5 -54t64.5 -14q63 0 80 13.5t17 54.5v335h146v-484zM422 680l-125 -127h-124l90 127h159z" />
    <glyph glyph-name="ucircumflex" unicode="&#xfb;" horiz-adv-x="595" 
d="M531 0h-144v59q-17 -69 -155 -69q-96 0 -132 34.5t-36 104.5v355h146v-335q0 -40 13.5 -54t64.5 -14q63 0 80 13.5t17 54.5v335h146v-484zM448 553h-98l-53 87l-52 -87h-98l56 127h187z" />
    <glyph glyph-name="udieresis" unicode="&#xfc;" horiz-adv-x="595" 
d="M531 0h-144v59q-17 -69 -155 -69q-96 0 -132 34.5t-36 104.5v355h146v-335q0 -40 13.5 -54t64.5 -14q63 0 80 13.5t17 54.5v335h146v-484zM455 565h-126v118h126v-118zM265 565h-126v118h126v-118z" />
    <glyph glyph-name="yacute" unicode="&#xfd;" horiz-adv-x="534" 
d="M526 484l-265 -692h-148l88 212l-193 480h159l109 -342l99 342h151zM429 680l-125 -127h-124l90 127h159z" />
    <glyph glyph-name="thorn" unicode="&#xfe;" horiz-adv-x="613" 
d="M559 331v-159q0 -108 -48 -145t-156 -37q-68 0 -101.5 11t-43.5 48v-258h-146v909h146v-250q31 44 156 44q62 0 101 -10t59 -32.5t26.5 -49.5t6.5 -71zM413 153v179q0 47 -17.5 59.5t-86.5 12.5q-62 0 -80.5 -16t-18.5 -56v-179q0 -43 18 -57.5t82 -14.5t83.5 14.5
t19.5 57.5z" />
    <glyph glyph-name="ydieresis" unicode="&#xff;" horiz-adv-x="534" 
d="M526 484l-265 -692h-148l88 212l-193 480h159l109 -342l99 342h151zM416 565h-126v118h126v-118zM226 565h-126v118h126v-118z" />
    <glyph glyph-name="Amacron" unicode="&#x100;" horiz-adv-x="668" 
d="M666 0h-158l-58 171h-237l-57 -171h-154l240 649h190zM416 275l-82 244h-4l-82 -244h168zM473 725h-278v89h278v-89z" />
    <glyph glyph-name="amacron" unicode="&#x101;" horiz-adv-x="564" 
d="M500 0h-143v44q-16 -29 -46 -41.5t-110 -12.5q-98 0 -130 30t-32 125q0 86 33 119.5t118 33.5h164v33q0 44 -20.5 58.5t-86.5 14.5q-62 0 -170 -12v92q83 10 185 10q134 0 186 -32.5t52 -128.5v-333zM354 124v94h-100q-48 0 -60 -11t-12 -59q0 -47 12.5 -57t63.5 -10
q25 0 37 0.5t26 2.5t19.5 6.5t9.5 12.5t4 21zM421 560h-278v89h278v-89z" />
    <glyph glyph-name="Abreve" unicode="&#x102;" horiz-adv-x="668" 
d="M666 0h-158l-58 171h-237l-57 -171h-154l240 649h190zM416 275l-82 244h-4l-82 -244h168zM472 845q-4 -57 -40.5 -92t-97.5 -35q-62 0 -98.5 35t-39.5 92h81q6 -29 18 -42t39 -13q50 0 56 55h82z" />
    <glyph glyph-name="abreve" unicode="&#x103;" horiz-adv-x="564" 
d="M500 0h-143v44q-16 -29 -46 -41.5t-110 -12.5q-98 0 -130 30t-32 125q0 86 33 119.5t118 33.5h164v33q0 44 -20.5 58.5t-86.5 14.5q-62 0 -170 -12v92q83 10 185 10q134 0 186 -32.5t52 -128.5v-333zM354 124v94h-100q-48 0 -60 -11t-12 -59q0 -47 12.5 -57t63.5 -10
q25 0 37 0.5t26 2.5t19.5 6.5t9.5 12.5t4 21zM420 680q-4 -57 -40.5 -92t-97.5 -35q-62 0 -98.5 35t-39.5 92h81q6 -29 18 -42t39 -13q50 0 56 55h82z" />
    <glyph glyph-name="Aogonek" unicode="&#x104;" horiz-adv-x="668" 
d="M582 -186q-45 0 -72 21t-27 59q0 58 25 106l-58 171h-237l-57 -171h-154l240 649h190l234 -649q-71 -25 -71 -86q0 -29 27 -29q12 0 30 6v-67q-21 -10 -70 -10zM416 275l-82 244h-4l-82 -244h168z" />
    <glyph glyph-name="aogonek" unicode="&#x105;" horiz-adv-x="564" 
d="M446 -186q-50 0 -74.5 18.5t-24.5 61.5q0 20 5 55.5t5 50.5v44q-16 -29 -46 -41.5t-110 -12.5q-98 0 -130 30t-32 125q0 86 33 119.5t118 33.5h164v33q0 44 -20.5 58.5t-86.5 14.5q-62 0 -170 -12v92q83 10 185 10q134 0 186 -32.5t52 -128.5v-333q-27 -23 -39.5 -41.5
t-12.5 -41.5q0 -16 8 -24t30 -8q12 0 30 6v-67q-21 -10 -70 -10zM354 124v94h-100q-48 0 -60 -11t-12 -59q0 -47 12.5 -57t63.5 -10q25 0 37 0.5t26 2.5t19.5 6.5t9.5 12.5t4 21z" />
    <glyph glyph-name="Cacute" unicode="&#x106;" horiz-adv-x="597" 
d="M567 12q-110 -22 -210 -22q-40 0 -75.5 3.5t-79 15t-74 31t-51.5 55t-21 83.5v285q0 196 301 196q74 0 206 -22v-117q-119 28 -204 28q-34 0 -55.5 -2t-45 -10t-35 -25.5t-11.5 -45.5v-276q0 -88 161 -88q71 0 194 29v-118zM483 845l-125 -127h-124l90 127h159z" />
    <glyph glyph-name="cacute" unicode="&#x107;" horiz-adv-x="482" 
d="M464 7q-88 -17 -164 -17q-37 0 -59 1t-55.5 5.5t-54 15.5t-41 28.5t-30.5 47t-10 69.5v161q0 36 8.5 63.5t21 46t35 31.5t41.5 19.5t49.5 10.5t51 4.5t53.5 0.5q55 0 147 -18v-96q-104 24 -158 24q-101 0 -101 -68v-178q0 -77 111 -77q52 0 155 22v-96zM425 680
l-125 -127h-124l90 127h159z" />
    <glyph glyph-name="Ccircumflex" unicode="&#x108;" horiz-adv-x="597" 
d="M567 12q-110 -22 -210 -22q-40 0 -75.5 3.5t-79 15t-74 31t-51.5 55t-21 83.5v285q0 196 301 196q74 0 206 -22v-117q-119 28 -204 28q-34 0 -55.5 -2t-45 -10t-35 -25.5t-11.5 -45.5v-276q0 -88 161 -88q71 0 194 29v-118zM489 718h-98l-53 87l-52 -87h-98l56 127h187z
" />
    <glyph glyph-name="ccircumflex" unicode="&#x109;" horiz-adv-x="482" 
d="M464 7q-88 -17 -164 -17q-37 0 -59 1t-55.5 5.5t-54 15.5t-41 28.5t-30.5 47t-10 69.5v161q0 36 8.5 63.5t21 46t35 31.5t41.5 19.5t49.5 10.5t51 4.5t53.5 0.5q55 0 147 -18v-96q-104 24 -158 24q-101 0 -101 -68v-178q0 -77 111 -77q52 0 155 22v-96zM431 553h-98
l-53 87l-52 -87h-98l56 127h187z" />
    <glyph glyph-name="Cdotaccent" unicode="&#x10a;" horiz-adv-x="597" 
d="M567 12q-110 -22 -210 -22q-40 0 -75.5 3.5t-79 15t-74 31t-51.5 55t-21 83.5v285q0 196 301 196q74 0 206 -22v-117q-119 28 -204 28q-34 0 -55.5 -2t-45 -10t-35 -25.5t-11.5 -45.5v-276q0 -88 161 -88q71 0 194 29v-118zM411 730h-146v115h146v-115z" />
    <glyph glyph-name="cdotaccent" unicode="&#x10b;" horiz-adv-x="482" 
d="M464 7q-88 -17 -164 -17q-37 0 -59 1t-55.5 5.5t-54 15.5t-41 28.5t-30.5 47t-10 69.5v161q0 36 8.5 63.5t21 46t35 31.5t41.5 19.5t49.5 10.5t51 4.5t53.5 0.5q55 0 147 -18v-96q-104 24 -158 24q-101 0 -101 -68v-178q0 -77 111 -77q52 0 155 22v-96zM354 565h-146v115
h146v-115z" />
    <glyph glyph-name="Ccaron" unicode="&#x10c;" horiz-adv-x="597" 
d="M567 12q-110 -22 -210 -22q-40 0 -75.5 3.5t-79 15t-74 31t-51.5 55t-21 83.5v285q0 196 301 196q74 0 206 -22v-117q-119 28 -204 28q-34 0 -55.5 -2t-45 -10t-35 -25.5t-11.5 -45.5v-276q0 -88 161 -88q71 0 194 29v-118zM489 845l-56 -127h-187l-58 127h98l53 -87
l52 87h98z" />
    <glyph glyph-name="ccaron" unicode="&#x10d;" horiz-adv-x="482" 
d="M464 7q-88 -17 -164 -17q-37 0 -59 1t-55.5 5.5t-54 15.5t-41 28.5t-30.5 47t-10 69.5v161q0 36 8.5 63.5t21 46t35 31.5t41.5 19.5t49.5 10.5t51 4.5t53.5 0.5q55 0 147 -18v-96q-104 24 -158 24q-101 0 -101 -68v-178q0 -77 111 -77q52 0 155 22v-96zM431 680l-56 -127
h-187l-58 127h98l53 -87l52 87h98z" />
    <glyph glyph-name="Dcaron" unicode="&#x10e;" horiz-adv-x="710" 
d="M654 452v-264q0 -110 -68 -149t-239 -39h-277v649h276q165 0 236.5 -41t71.5 -156zM498 188v267q0 47 -38 65t-115 18h-119v-427h114q90 0 124 13.5t34 63.5zM505 845l-56 -127h-187l-58 127h98l53 -87l52 87h98z" />
    <glyph glyph-name="dcaron" unicode="&#x10f;" horiz-adv-x="700" 
d="M544 0h-141v55q-17 -27 -31 -39.5t-42 -19t-80 -6.5q-124 0 -162 31t-38 138v189q0 82 46.5 114t146.5 32q72 0 101 -13.5t54 -50.5v270h146v-700zM398 145v195q0 36 -19.5 50t-83.5 14q-67 0 -83 -13t-16 -56v-185q0 -40 16 -54.5t75 -14.5q71 0 91 12.5t20 51.5z
M739 700l-64 -163h-96l26 163h134z" />
    <glyph glyph-name="Dcroat" unicode="&#x110;" horiz-adv-x="677" 
d="M627 452v-264q0 -101 -73 -144.5t-227 -43.5h-257v288h-60v91h60v270h256q179 0 240 -41.5t61 -155.5zM478 186v274q0 47 -38 65t-115 18h-102v-164h134v-91h-134v-179h97q33 0 56.5 2.5t49 9.5t39 23.5t13.5 41.5z" />
    <glyph glyph-name="dcroat" unicode="&#x111;" horiz-adv-x="608" 
d="M544 0h-141v55q-17 -27 -31 -39.5t-42 -19t-80 -6.5q-124 0 -162 31t-38 138v189q0 82 46.5 114t146.5 32q72 0 101 -13.5t54 -50.5v123h-111v82h111v65h146v-65h42v-82h-42v-553zM398 145v195q0 36 -19.5 50t-83.5 14q-67 0 -83 -13t-16 -56v-185q0 -40 16 -54.5
t75 -14.5q71 0 91 12.5t20 51.5z" />
    <glyph glyph-name="Emacron" unicode="&#x112;" horiz-adv-x="610" 
d="M575 0h-505v649h495v-111h-339v-149h306v-111h-306v-167h349v-111zM444 725h-278v89h278v-89z" />
    <glyph glyph-name="emacron" unicode="&#x113;" horiz-adv-x="559" 
d="M511 203h-314v-44q0 -41 29 -59.5t109 -18.5q72 0 162 21v-93q-92 -19 -190 -19q-257 0 -257 157v174q0 93 60 133t179 40q112 0 167 -38t55 -135v-118zM372 286v70q0 23 -18.5 35.5t-66.5 12.5q-53 0 -71.5 -12.5t-18.5 -35.5v-70h175zM418 560h-278v89h278v-89z" />
    <glyph glyph-name="Ebreve" unicode="&#x114;" horiz-adv-x="610" 
d="M575 0h-505v649h495v-111h-339v-149h306v-111h-306v-167h349v-111zM471 845q-4 -57 -40.5 -92t-97.5 -35q-62 0 -98.5 35t-39.5 92h81q6 -29 18 -42t39 -13q50 0 56 55h82z" />
    <glyph glyph-name="ebreve" unicode="&#x115;" horiz-adv-x="559" 
d="M511 203h-314v-44q0 -41 29 -59.5t109 -18.5q72 0 162 21v-93q-92 -19 -190 -19q-257 0 -257 157v174q0 93 60 133t179 40q112 0 167 -38t55 -135v-118zM372 286v70q0 23 -18.5 35.5t-66.5 12.5q-53 0 -71.5 -12.5t-18.5 -35.5v-70h175zM422 680q-4 -57 -40.5 -92
t-97.5 -35q-62 0 -98.5 35t-39.5 92h81q6 -29 18 -42t39 -13q50 0 56 55h82z" />
    <glyph glyph-name="Edotaccent" unicode="&#x116;" horiz-adv-x="610" 
d="M575 0h-505v649h495v-111h-339v-149h306v-111h-306v-167h349v-111zM398 730h-146v115h146v-115z" />
    <glyph glyph-name="edotaccent" unicode="&#x117;" horiz-adv-x="559" 
d="M511 203h-314v-44q0 -41 29 -59.5t109 -18.5q72 0 162 21v-93q-92 -19 -190 -19q-257 0 -257 157v174q0 93 60 133t179 40q112 0 167 -38t55 -135v-118zM372 286v70q0 23 -18.5 35.5t-66.5 12.5q-53 0 -71.5 -12.5t-18.5 -35.5v-70h175zM362 565h-146v115h146v-115z" />
    <glyph glyph-name="Eogonek" unicode="&#x118;" horiz-adv-x="610" 
d="M575 0h-505v649h495v-111h-339v-149h306v-111h-306v-167h349v-111zM505 -186q-49 0 -74 18.5t-25 61.5q0 50 36 106h95q-30 -47 -30 -83q0 -16 8 -24t30 -8q12 0 30 6v-67q-21 -10 -70 -10z" />
    <glyph glyph-name="eogonek" unicode="&#x119;" horiz-adv-x="559" 
d="M441 -186q-49 0 -74 18.5t-25 61.5q0 46 30 97q-18 -1 -65 -1q-257 0 -257 157v174q0 93 60 133t179 40q112 0 167 -38t55 -135v-118h-314v-44q0 -41 29 -59.5t109 -18.5q72 0 162 21v-93l-34 -7q-20 -40 -20 -85q0 -16 8 -24t30 -8q12 0 30 6v-67q-21 -10 -70 -10z
M372 286v70q0 23 -18.5 35.5t-66.5 12.5q-53 0 -71.5 -12.5t-18.5 -35.5v-70h175z" />
    <glyph glyph-name="Ecaron" unicode="&#x11a;" horiz-adv-x="610" 
d="M575 0h-505v649h495v-111h-339v-149h306v-111h-306v-167h349v-111zM473 845l-56 -127h-187l-58 127h98l53 -87l52 87h98z" />
    <glyph glyph-name="ecaron" unicode="&#x11b;" horiz-adv-x="559" 
d="M511 203h-314v-44q0 -41 29 -59.5t109 -18.5q72 0 162 21v-93q-92 -19 -190 -19q-257 0 -257 157v174q0 93 60 133t179 40q112 0 167 -38t55 -135v-118zM372 286v70q0 23 -18.5 35.5t-66.5 12.5q-53 0 -71.5 -12.5t-18.5 -35.5v-70h175zM430 680l-56 -127h-187l-58 127
h98l53 -87l52 87h98z" />
    <glyph glyph-name="Gcircumflex" unicode="&#x11c;" horiz-adv-x="641" 
d="M591 12q-110 -22 -230 -22q-40 0 -76.5 3.5t-81.5 15t-77 31t-54 55t-22 83.5v285q0 50 22.5 88t55 58t78 32.5t81 15.5t74.5 3q94 0 226 -22v-111q-119 28 -224 28q-27 0 -46 -1t-43 -6t-39 -13t-25.5 -24.5t-10.5 -38.5v-291q0 -26 17 -44t45 -27t56.5 -13t59.5 -4
q27 0 75 5v169h-126v102h265v-357zM493 703h-98l-53 87l-52 -87h-98l56 127h187z" />
    <glyph glyph-name="gcircumflex" unicode="&#x11d;" horiz-adv-x="608" 
d="M544 484v-510q0 -106 -72.5 -150t-211.5 -44q-114 0 -175 7v98q98 -13 175 -13q73 0 105.5 23.5t32.5 80.5v78q-25 -37 -54 -50.5t-101 -13.5q-104 0 -148.5 31t-44.5 115v189q0 98 41 133.5t159 35.5q52 0 80 -6.5t42 -19t31 -39.5v55h141zM398 145v195q0 39 -20 51.5
t-91 12.5q-59 0 -75 -14.5t-16 -54.5v-185q0 -43 16 -56t83 -13q64 0 83.5 14t19.5 50zM454 553h-98l-53 87l-52 -87h-98l56 127h187z" />
    <glyph glyph-name="Gbreve" unicode="&#x11e;" horiz-adv-x="641" 
d="M591 12q-110 -22 -230 -22q-40 0 -76.5 3.5t-81.5 15t-77 31t-54 55t-22 83.5v285q0 50 22.5 88t55 58t78 32.5t81 15.5t74.5 3q94 0 226 -22v-111q-119 28 -224 28q-27 0 -46 -1t-43 -6t-39 -13t-25.5 -24.5t-10.5 -38.5v-291q0 -26 17 -44t45 -27t56.5 -13t59.5 -4
q27 0 75 5v169h-126v102h265v-357zM471 830q-4 -57 -37 -92t-87 -35q-55 0 -88.5 35t-36.5 92h68q6 -30 18.5 -44t38.5 -14q50 0 56 58h68z" />
    <glyph glyph-name="gbreve" unicode="&#x11f;" horiz-adv-x="608" 
d="M544 484v-510q0 -106 -72.5 -150t-211.5 -44q-114 0 -175 7v98q98 -13 175 -13q73 0 105.5 23.5t32.5 80.5v78q-25 -37 -54 -50.5t-101 -13.5q-104 0 -148.5 31t-44.5 115v189q0 98 41 133.5t159 35.5q52 0 80 -6.5t42 -19t31 -39.5v55h141zM398 145v195q0 39 -20 51.5
t-91 12.5q-59 0 -75 -14.5t-16 -54.5v-185q0 -43 16 -56t83 -13q64 0 83.5 14t19.5 50zM442 680q-4 -57 -40.5 -92t-97.5 -35q-62 0 -98.5 35t-39.5 92h81q6 -29 18 -42t39 -13q50 0 56 55h82z" />
    <glyph glyph-name="Gdotaccent" unicode="&#x120;" horiz-adv-x="641" 
d="M591 12q-110 -22 -230 -22q-40 0 -76.5 3.5t-81.5 15t-77 31t-54 55t-22 83.5v285q0 50 22.5 88t55 58t78 32.5t81 15.5t74.5 3q94 0 226 -22v-111q-119 28 -224 28q-27 0 -46 -1t-43 -6t-39 -13t-25.5 -24.5t-10.5 -38.5v-291q0 -26 17 -44t45 -27t56.5 -13t59.5 -4
q27 0 75 5v169h-126v102h265v-357zM432 715h-146v115h146v-115z" />
    <glyph glyph-name="gdotaccent" unicode="&#x121;" horiz-adv-x="608" 
d="M544 484v-510q0 -106 -72.5 -150t-211.5 -44q-114 0 -175 7v98q98 -13 175 -13q73 0 105.5 23.5t32.5 80.5v78q-25 -37 -54 -50.5t-101 -13.5q-104 0 -148.5 31t-44.5 115v189q0 98 41 133.5t159 35.5q52 0 80 -6.5t42 -19t31 -39.5v55h141zM398 145v195q0 39 -20 51.5
t-91 12.5q-59 0 -75 -14.5t-16 -54.5v-185q0 -43 16 -56t83 -13q64 0 83.5 14t19.5 50zM377 565h-146v115h146v-115z" />
    <glyph glyph-name="Gcommaaccent" unicode="&#x122;" horiz-adv-x="705" 
d="M649 32q-50 -18 -127.5 -30t-142.5 -12q-54 0 -97.5 4.5t-87 17t-73 32.5t-47.5 54t-18 80v270q0 51 21 90t53 61t77 36.5t86.5 19t87.5 4.5q138 0 264 -21v-118q-119 28 -264 28q-169 0 -169 -98v-261q0 -50 47.5 -69t135.5 -19q49 0 105 15v151h-106v102h255v-337z
M442 -46l-83 -162h-96l46 162h133z" />
    <glyph glyph-name="gcommaaccent" unicode="&#x123;" horiz-adv-x="608" 
d="M544 484v-510q0 -106 -72.5 -150t-211.5 -44q-114 0 -175 7v98q98 -13 175 -13q73 0 105.5 23.5t32.5 80.5v78q-25 -37 -54 -50.5t-101 -13.5q-104 0 -148.5 31t-44.5 115v189q0 98 41 133.5t159 35.5q52 0 80 -6.5t42 -19t31 -39.5v55h141zM398 145v195q0 39 -20 51.5
t-91 12.5q-59 0 -75 -14.5t-16 -54.5v-185q0 -43 16 -56t83 -13q64 0 83.5 14t19.5 50zM215 538l83 162h96l-46 -162h-133z" />
    <glyph glyph-name="Hcircumflex" unicode="&#x124;" horiz-adv-x="728" 
d="M658 0h-156v278h-276v-278h-156v649h156v-260h276v260h156v-649zM514 718h-98l-53 87l-52 -87h-98l56 127h187z" />
    <glyph glyph-name="hcircumflex" unicode="&#x125;" horiz-adv-x="595" 
d="M531 0h-146v338q0 40 -13.5 53t-64.5 13q-63 0 -80 -12.5t-17 -53.5v-338h-146v700h146v-275q14 69 153 69q96 0 132 -34.5t36 -104.5v-355zM282 744h-98l-53 87l-52 -87h-98l56 127h187z" />
    <glyph glyph-name="Hbar" unicode="&#x126;" horiz-adv-x="728" 
d="M658 0h-156v208h-276v-208h-156v649h156v-164h276v164h156v-649zM226 383v-73h276v73h-276z" />
    <glyph glyph-name="hbar" unicode="&#x127;" horiz-adv-x="595" 
d="M19 553v87h45v60h146v-60h148v-87h-148v-128q14 69 153 69q96 0 132 -34.5t36 -104.5v-355h-146v338q0 40 -13.5 53t-64.5 13q-63 0 -80 -12.5t-17 -53.5v-338h-146v553h-45z" />
    <glyph glyph-name="Itilde" unicode="&#x128;" horiz-adv-x="296" 
d="M226 0h-156v649h156v-649zM211 824q28 0 41 33l41 -24q-7 -24 -31 -53t-60 -29q-25 0 -65 16.5t-51 16.5q-29 0 -42 -33l-40 24q6 23 30.5 51t60.5 28q23 0 61.5 -15t54.5 -15z" />
    <glyph glyph-name="itilde" unicode="&#x129;" horiz-adv-x="282" 
d="M214 0h-146v484h146v-484zM204 659q28 0 41 33l41 -24q-7 -24 -31 -53t-60 -29q-25 0 -65 16.5t-51 16.5q-29 0 -42 -33l-40 24q6 23 30.5 51t60.5 28q23 0 61.5 -15t54.5 -15z" />
    <glyph glyph-name="Imacron" unicode="&#x12a;" horiz-adv-x="296" 
d="M226 0h-156v649h156v-649zM287 725h-278v89h278v-89z" />
    <glyph glyph-name="imacron" unicode="&#x12b;" horiz-adv-x="282" 
d="M214 0h-146v484h146v-484zM280 560h-278v89h278v-89z" />
    <glyph glyph-name="Ibreve" unicode="&#x12c;" horiz-adv-x="296" 
d="M226 0h-156v649h156v-649zM286 845q-4 -57 -40.5 -92t-97.5 -35q-62 0 -98.5 35t-39.5 92h81q6 -29 18 -42t39 -13q50 0 56 55h82z" />
    <glyph glyph-name="ibreve" unicode="&#x12d;" horiz-adv-x="282" 
d="M214 0h-146v484h146v-484zM279 680q-4 -57 -40.5 -92t-97.5 -35q-62 0 -98.5 35t-39.5 92h81q6 -29 18 -42t39 -13q50 0 56 55h82z" />
    <glyph glyph-name="Iogonek" unicode="&#x12e;" horiz-adv-x="296" 
d="M226 0q-34 -11 -60 -35t-26 -48q0 -16 8 -24t30 -8q12 0 30 6v-67q-21 -10 -70 -10t-74 18.5t-25 61.5q0 58 31 106v649h156v-649z" />
    <glyph glyph-name="iogonek" unicode="&#x12f;" horiz-adv-x="286" 
d="M150 -186q-109 0 -109 80q0 61 29 106v484h146v-484q-64 -33 -64 -83q0 -16 8 -24t30 -8q12 0 30 6v-67q-21 -10 -70 -10z" />
    <glyph glyph-name="Idotaccent" unicode="&#x130;" horiz-adv-x="296" 
d="M226 0h-156v649h156v-649zM221 730h-146v115h146v-115z" />
    <glyph glyph-name="dotlessi" unicode="&#x131;" horiz-adv-x="282" 
d="M214 0h-146v484h146v-484z" />
    <glyph glyph-name="IJ" unicode="&#x132;" horiz-adv-x="741" 
d="M226 0h-156v649h156v-649zM673 649v-472q0 -105 -57 -146t-166 -41q-65 0 -135 10v114q74 -13 123 -13q79 0 79 71v477h156z" />
    <glyph glyph-name="ij" unicode="&#x133;" horiz-adv-x="556" 
d="M214 541h-146v118h146v-118zM214 0h-146v484h146v-484zM492 484v-557q0 -86 -51.5 -116.5t-149.5 -30.5q-13 0 -47 2v95q6 -1 18 -1q54 0 69 14t15 70v524h146zM492 541h-146v118h146v-118z" />
    <glyph glyph-name="Jcircumflex" unicode="&#x134;" horiz-adv-x="445" 
d="M377 649v-472q0 -105 -57 -146t-166 -41q-65 0 -135 10v114q74 -13 123 -13q79 0 79 71v477h156zM449 718h-98l-53 87l-52 -87h-98l56 127h187z" />
    <glyph glyph-name="jcircumflex" unicode="&#x135;" horiz-adv-x="274" 
d="M210 484v-557q0 -86 -51.5 -116.5t-149.5 -30.5q-13 0 -47 2v95q6 -1 18 -1q54 0 69 14t15 70v524h146zM288 553h-98l-53 87l-52 -87h-98l56 127h187z" />
    <glyph glyph-name="Kcommaaccent" unicode="&#x136;" horiz-adv-x="682" 
d="M683 0h-190l-263 344l243 305h183l-246 -302zM226 0h-156v649h156v-649zM430 -46l-83 -162h-96l46 162h133z" />
    <glyph glyph-name="kcommaaccent" unicode="&#x137;" horiz-adv-x="540" 
d="M556 0h-165l-175 272l159 212h167l-168 -211zM210 0h-146v700h146v-700zM359 -46l-83 -162h-96l46 162h133z" />
    <glyph glyph-name="kgreenlandic" unicode="&#x138;" horiz-adv-x="540" 
d="M556 0h-165l-175 262l159 222h167l-168 -221zM210 0h-146v484h146v-484z" />
    <glyph glyph-name="Lacute" unicode="&#x139;" 
d="M545 0h-475v649h156v-538h319v-111zM341 845l-125 -127h-124l90 127h159z" />
    <glyph glyph-name="lacute" unicode="&#x13a;" horiz-adv-x="282" 
d="M214 0h-146v700h146v-700zM328 874l-125 -127h-124l90 127h159z" />
    <glyph glyph-name="Lcommaaccent" unicode="&#x13b;" 
d="M545 0h-475v649h156v-538h319v-111zM379 -46l-83 -162h-96l46 162h133z" />
    <glyph glyph-name="lcommaaccent" unicode="&#x13c;" horiz-adv-x="282" 
d="M214 0h-146v700h146v-700zM211 -46l-83 -162h-96l46 162h133z" />
    <glyph glyph-name="Lcaron" unicode="&#x13d;" 
d="M545 0h-475v649h156v-538h319v-111zM417 649l-64 -163h-96l26 163h134z" />
    <glyph glyph-name="lcaron" unicode="&#x13e;" horiz-adv-x="364" 
d="M214 0h-146v700h146v-700zM403 700l-64 -163h-96l26 163h134z" />
    <glyph glyph-name="Ldot" unicode="&#x13f;" 
d="M545 0h-475v649h156v-538h319v-111zM420 265h-147v138h147v-138z" />
    <glyph glyph-name="ldot" unicode="&#x140;" horiz-adv-x="393" 
d="M214 0h-146v700h146v-700zM403 262h-147v138h147v-138z" />
    <glyph glyph-name="Lslash" unicode="&#x141;" 
d="M545 0h-475v240l-60 -17v105l60 17v304h156v-259l130 38v-105l-130 -38v-174h319v-111z" />
    <glyph glyph-name="lslash" unicode="&#x142;" horiz-adv-x="282" 
d="M214 0h-146v305l-58 -22v101l58 22v294h146v-238l58 22v-101l-58 -22v-361z" />
    <glyph glyph-name="Nacute" unicode="&#x143;" horiz-adv-x="751" 
d="M681 0h-158l-314 450v-450h-139v649h158l314 -443v443h139v-649zM500 845l-125 -127h-124l90 127h159z" />
    <glyph glyph-name="nacute" unicode="&#x144;" horiz-adv-x="595" 
d="M531 0h-146v336q0 40 -13.5 54t-64.5 14q-63 0 -80 -13.5t-17 -54.5v-336h-146v484h144v-59q17 69 155 69q96 0 132 -34.5t36 -104.5v-355zM422 680l-125 -127h-124l90 127h159z" />
    <glyph glyph-name="Ncommaaccent" unicode="&#x145;" horiz-adv-x="751" 
d="M681 0h-158l-314 450v-450h-139v649h158l314 -443v443h139v-649zM465 -46l-83 -162h-96l46 162h133z" />
    <glyph glyph-name="ncommaaccent" unicode="&#x146;" horiz-adv-x="595" 
d="M531 0h-146v336q0 40 -13.5 54t-64.5 14q-63 0 -80 -13.5t-17 -54.5v-336h-146v484h144v-59q17 69 155 69q96 0 132 -34.5t36 -104.5v-355zM387 -46l-83 -162h-96l46 162h133z" />
    <glyph glyph-name="Ncaron" unicode="&#x147;" horiz-adv-x="751" 
d="M681 0h-158l-314 450v-450h-139v649h158l314 -443v443h139v-649zM519 830l-56 -127h-187l-58 127h98l53 -87l52 87h98z" />
    <glyph glyph-name="ncaron" unicode="&#x148;" horiz-adv-x="595" 
d="M531 0h-146v336q0 40 -13.5 54t-64.5 14q-63 0 -80 -13.5t-17 -54.5v-336h-146v484h144v-59q17 69 155 69q96 0 132 -34.5t36 -104.5v-355zM448 680l-56 -127h-187l-58 127h98l53 -87l52 87h98z" />
    <glyph glyph-name="napostrophe" unicode="&#x149;" horiz-adv-x="595" 
d="M531 0h-146v336q0 40 -13.5 54t-64.5 14q-63 0 -80 -13.5t-17 -54.5v-336h-146v484h144v-59q17 69 155 69q96 0 132 -34.5t36 -104.5v-355zM245 700l-64 -163h-96l26 163h134z" />
    <glyph glyph-name="Eng" unicode="&#x14a;" horiz-adv-x="751" 
d="M681 649v-681q0 -40 -8.5 -67.5t-21.5 -43t-36 -24t-45.5 -11t-56.5 -2.5q-66 0 -91 5v89q18 -5 52 -5q28 0 39.5 17.5t11.5 66.5v7l-316 450v-450h-139v649h158l314 -443v443h139z" />
    <glyph glyph-name="eng" unicode="&#x14b;" horiz-adv-x="573" 
d="M385 -47v384q0 40 -13.5 53t-64.5 13q-63 0 -80 -12.5t-17 -53.5v-337h-146v484h146v-59q14 69 153 69q96 0 132 -34.5t36 -104.5v-427q0 -40 -8.5 -67.5t-21.5 -43t-36 -24t-45.5 -11t-56.5 -2.5q-36 0 -61 5v89q18 -5 32 -5q28 0 39.5 17.5t11.5 66.5z" />
    <glyph glyph-name="Omacron" unicode="&#x14c;" horiz-adv-x="728" 
d="M672 462v-284q0 -55 -29 -94t-78 -58.5t-98 -27.5t-104 -8q-52 0 -97.5 6.5t-97 24.5t-82 58t-30.5 99v284q0 50 22.5 88t54 58t76.5 32.5t80 15.5t74 3q40 0 75.5 -3t80.5 -15.5t77 -32.5t54 -57.5t22 -88.5zM516 178v285q0 47 -38.5 66t-113.5 19q-76 0 -114 -18.5
t-38 -66.5v-285q0 -25 13 -41.5t37.5 -23.5t47 -9.5t55.5 -2.5t55.5 2.5t46.5 9.5t36.5 23.5t12.5 41.5zM503 725h-278v89h278v-89z" />
    <glyph glyph-name="omacron" unicode="&#x14d;" horiz-adv-x="592" 
d="M542 309v-143q0 -47 -15 -80.5t-37 -52t-57.5 -28.5t-65 -12.5t-71.5 -2.5t-71.5 2.5t-65 12.5t-57.5 28.5t-37 52t-15 80.5v143q0 50 15.5 85.5t38 54.5t58.5 29.5t64.5 13t69.5 2.5t69.5 -2.5t64.5 -13t58.5 -29.5t38 -54.5t15.5 -85.5zM396 149v183q0 39 -20 55.5
t-80 16.5t-80 -16.5t-20 -55.5v-183q0 -38 19.5 -53t80.5 -15t80.5 15t19.5 53zM435 560h-278v89h278v-89z" />
    <glyph glyph-name="Obreve" unicode="&#x14e;" horiz-adv-x="728" 
d="M672 462v-284q0 -55 -29 -94t-78 -58.5t-98 -27.5t-104 -8q-52 0 -97.5 6.5t-97 24.5t-82 58t-30.5 99v284q0 50 22.5 88t54 58t76.5 32.5t80 15.5t74 3q40 0 75.5 -3t80.5 -15.5t77 -32.5t54 -57.5t22 -88.5zM516 178v285q0 47 -38.5 66t-113.5 19q-76 0 -114 -18.5
t-38 -66.5v-285q0 -25 13 -41.5t37.5 -23.5t47 -9.5t55.5 -2.5t55.5 2.5t46.5 9.5t36.5 23.5t12.5 41.5zM502 845q-4 -57 -40.5 -92t-97.5 -35q-62 0 -98.5 35t-39.5 92h81q6 -29 18 -42t39 -13q50 0 56 55h82z" />
    <glyph glyph-name="obreve" unicode="&#x14f;" horiz-adv-x="592" 
d="M542 309v-143q0 -47 -15 -80.5t-37 -52t-57.5 -28.5t-65 -12.5t-71.5 -2.5t-71.5 2.5t-65 12.5t-57.5 28.5t-37 52t-15 80.5v143q0 50 15.5 85.5t38 54.5t58.5 29.5t64.5 13t69.5 2.5t69.5 -2.5t64.5 -13t58.5 -29.5t38 -54.5t15.5 -85.5zM396 149v183q0 39 -20 55.5
t-80 16.5t-80 -16.5t-20 -55.5v-183q0 -38 19.5 -53t80.5 -15t80.5 15t19.5 53zM434 680q-4 -57 -40.5 -92t-97.5 -35q-62 0 -98.5 35t-39.5 92h81q6 -29 18 -42t39 -13q50 0 56 55h82z" />
    <glyph glyph-name="Ohungarumlaut" unicode="&#x150;" horiz-adv-x="728" 
d="M672 462v-284q0 -55 -29 -94t-78 -58.5t-98 -27.5t-104 -8q-52 0 -97.5 6.5t-97 24.5t-82 58t-30.5 99v284q0 50 22.5 88t54 58t76.5 32.5t80 15.5t74 3q40 0 75.5 -3t80.5 -15.5t77 -32.5t54 -57.5t22 -88.5zM516 178v285q0 47 -38.5 66t-113.5 19q-76 0 -114 -18.5
t-38 -66.5v-285q0 -25 13 -41.5t37.5 -23.5t47 -9.5t55.5 -2.5t55.5 2.5t46.5 9.5t36.5 23.5t12.5 41.5zM520 845l-70 -128h-96l70 128h96zM373 845l-70 -128h-96l70 128h96z" />
    <glyph glyph-name="ohungarumlaut" unicode="&#x151;" horiz-adv-x="592" 
d="M542 309v-143q0 -47 -15 -80.5t-37 -52t-57.5 -28.5t-65 -12.5t-71.5 -2.5t-71.5 2.5t-65 12.5t-57.5 28.5t-37 52t-15 80.5v143q0 50 15.5 85.5t38 54.5t58.5 29.5t64.5 13t69.5 2.5t69.5 -2.5t64.5 -13t58.5 -29.5t38 -54.5t15.5 -85.5zM396 149v183q0 39 -20 55.5
t-80 16.5t-80 -16.5t-20 -55.5v-183q0 -38 19.5 -53t80.5 -15t80.5 15t19.5 53zM452 680l-70 -128h-96l70 128h96zM305 680l-70 -128h-96l70 128h96z" />
    <glyph glyph-name="OE" unicode="&#x152;" horiz-adv-x="976" 
d="M941 0h-615q-270 0 -270 188v264q0 197 290 197h585v-111h-322v-149h289v-111h-289v-167h332v-111zM456 111v427h-99q-30 0 -50.5 -2t-47 -9.5t-40.5 -26t-14 -47.5v-265q0 -27 14.5 -44t43 -23.5t47 -8t48.5 -1.5h98z" />
    <glyph glyph-name="oe" unicode="&#x153;" horiz-adv-x="889" 
d="M843 203h-314v-44q0 -41 29 -59.5t109 -18.5q72 0 162 21v-93q-92 -19 -190 -19q-122 0 -180 36q-54 -36 -163 -36q-42 0 -71.5 2.5t-65 12.5t-57.5 28.5t-37 52t-15 80.5v143q0 50 15.5 85.5t38 54.5t58.5 29.5t64.5 13t69.5 2.5q105 0 160 -37q51 37 165 37
q112 0 167 -38t55 -135v-118zM396 149v183q0 39 -20 55.5t-80 16.5t-80 -16.5t-20 -55.5v-183q0 -38 19.5 -53t80.5 -15t80.5 15t19.5 53zM704 286v70q0 23 -18.5 35.5t-66.5 12.5q-53 0 -71.5 -12.5t-18.5 -35.5v-70h175z" />
    <glyph glyph-name="Racute" unicode="&#x154;" horiz-adv-x="668" 
d="M698 0h-180l-170 255h-72v-255h-156v649h292q128 0 187 -31t59 -106v-114q0 -59 -42.5 -91t-105.5 -40zM505 429v46q0 36 -21.5 49.5t-73.5 13.5h-134v-180h134q55 0 75 14.5t20 56.5zM458 845l-125 -127h-124l90 127h159z" />
    <glyph glyph-name="racute" unicode="&#x155;" horiz-adv-x="397" 
d="M381 373h-50q-60 0 -90.5 -18.5t-30.5 -63.5v-291h-146v484h139v-85q1 36 41.5 65.5t84.5 29.5h52v-121zM323 680l-125 -127h-124l90 127h159z" />
    <glyph glyph-name="Rcommaaccent" unicode="&#x156;" horiz-adv-x="668" 
d="M698 0h-180l-170 255h-72v-255h-156v649h292q128 0 187 -31t59 -106v-114q0 -59 -42.5 -91t-105.5 -40zM505 429v46q0 36 -21.5 49.5t-73.5 13.5h-134v-180h134q55 0 75 14.5t20 56.5zM423 -46l-83 -162h-96l46 162h133z" />
    <glyph glyph-name="rcommaaccent" unicode="&#x157;" horiz-adv-x="397" 
d="M381 373h-50q-60 0 -90.5 -18.5t-30.5 -63.5v-291h-146v484h139v-85q1 36 41.5 65.5t84.5 29.5h52v-121zM213 -46l-83 -162h-96l46 162h133z" />
    <glyph glyph-name="Rcaron" unicode="&#x158;" horiz-adv-x="668" 
d="M698 0h-180l-170 255h-72v-255h-156v649h292q128 0 187 -31t59 -106v-114q0 -59 -42.5 -91t-105.5 -40zM505 429v46q0 36 -21.5 49.5t-73.5 13.5h-134v-180h134q55 0 75 14.5t20 56.5zM484 845l-56 -127h-187l-58 127h98l53 -87l52 87h98z" />
    <glyph glyph-name="rcaron" unicode="&#x159;" horiz-adv-x="397" 
d="M381 373h-50q-60 0 -90.5 -18.5t-30.5 -63.5v-291h-146v484h139v-85q1 36 41.5 65.5t84.5 29.5h52v-121zM349 680l-56 -127h-187l-58 127h98l53 -87l52 87h98z" />
    <glyph glyph-name="Sacute" unicode="&#x15a;" horiz-adv-x="606" 
d="M568 228v-43q0 -58 -21 -97.5t-62 -60t-89.5 -29t-115.5 -8.5q-93 0 -230 18v119q166 -26 232 -26q130 0 130 67v42q0 29 -17 47.5t-68 18.5h-76q-214 0 -214 170v48q0 84 70.5 124.5t225.5 40.5q75 0 203 -13v-116q-152 18 -208 18q-77 0 -106 -13t-29 -44v-46
q0 -51 86 -51h78q114 0 162.5 -42t48.5 -124zM427 845l-125 -127h-124l90 127h159z" />
    <glyph glyph-name="sacute" unicode="&#x15b;" horiz-adv-x="525" 
d="M481 189v-61q0 -36 -13.5 -62t-34 -40.5t-53.5 -22.5t-63.5 -10.5t-71.5 -2.5q-79 0 -191 15v97q139 -21 193 -21q43 0 66.5 8.5t23.5 33.5v30q0 23 -13 34.5t-56 11.5h-63q-76 0 -118.5 30.5t-42.5 89.5v59q0 66 63 91t178 25q48 0 172 -9v-93q-156 12 -176 12
q-61 0 -77 -8.5t-16 -32.5v-26q0 -12 12.5 -22t38.5 -10h64q178 0 178 -116zM387 680l-125 -127h-124l90 127h159z" />
    <glyph glyph-name="Scircumflex" unicode="&#x15c;" horiz-adv-x="606" 
d="M568 228v-43q0 -58 -21 -97.5t-62 -60t-89.5 -29t-115.5 -8.5q-93 0 -230 18v119q166 -26 232 -26q130 0 130 67v42q0 29 -17 47.5t-68 18.5h-76q-214 0 -214 170v48q0 84 70.5 124.5t225.5 40.5q75 0 203 -13v-116q-152 18 -208 18q-77 0 -106 -13t-29 -44v-46
q0 -51 86 -51h78q114 0 162.5 -42t48.5 -124zM453 718h-98l-53 87l-52 -87h-98l56 127h187z" />
    <glyph glyph-name="scircumflex" unicode="&#x15d;" horiz-adv-x="525" 
d="M481 189v-61q0 -36 -13.5 -62t-34 -40.5t-53.5 -22.5t-63.5 -10.5t-71.5 -2.5q-79 0 -191 15v97q139 -21 193 -21q43 0 66.5 8.5t23.5 33.5v30q0 23 -13 34.5t-56 11.5h-63q-76 0 -118.5 30.5t-42.5 89.5v59q0 66 63 91t178 25q48 0 172 -9v-93q-156 12 -176 12
q-61 0 -77 -8.5t-16 -32.5v-26q0 -12 12.5 -22t38.5 -10h64q178 0 178 -116zM413 553h-98l-53 87l-52 -87h-98l56 127h187z" />
    <glyph glyph-name="Scedilla" unicode="&#x15e;" horiz-adv-x="606" 
d="M568 228v-43q0 -58 -21 -97.5t-62 -60t-89.5 -29t-115.5 -8.5q-93 0 -230 18v119q166 -26 232 -26q130 0 130 67v42q0 29 -17 47.5t-68 18.5h-76q-214 0 -214 170v48q0 84 70.5 124.5t225.5 40.5q75 0 203 -13v-116q-152 18 -208 18q-77 0 -106 -13t-29 -44v-46
q0 -51 86 -51h78q114 0 162.5 -42t48.5 -124zM277 0h70l-36 -50q41 -3 69 -21.5t28 -57.5q0 -45 -36.5 -68t-83.5 -23q-56 0 -91 23l22 46q30 -18 62 -18q47 0 47 35q0 38 -75 38h-40q2 4 32 48t32 48z" />
    <glyph glyph-name="scedilla" unicode="&#x15f;" horiz-adv-x="525" 
d="M481 189v-61q0 -36 -13.5 -62t-34 -40.5t-53.5 -22.5t-63.5 -10.5t-71.5 -2.5q-79 0 -191 15v97q139 -21 193 -21q43 0 66.5 8.5t23.5 33.5v30q0 23 -13 34.5t-56 11.5h-63q-76 0 -118.5 30.5t-42.5 89.5v59q0 66 63 91t178 25q48 0 172 -9v-93q-156 12 -176 12
q-61 0 -77 -8.5t-16 -32.5v-26q0 -12 12.5 -22t38.5 -10h64q178 0 178 -116zM237 0h70l-36 -50q41 -3 69 -21.5t28 -57.5q0 -45 -36.5 -68t-83.5 -23q-56 0 -91 23l22 46q30 -18 62 -18q47 0 47 35q0 38 -75 38h-40q2 4 32 48t32 48z" />
    <glyph glyph-name="Scaron" unicode="&#x160;" horiz-adv-x="606" 
d="M568 228v-43q0 -58 -21 -97.5t-62 -60t-89.5 -29t-115.5 -8.5q-93 0 -230 18v119q166 -26 232 -26q130 0 130 67v42q0 29 -17 47.5t-68 18.5h-76q-214 0 -214 170v48q0 84 70.5 124.5t225.5 40.5q75 0 203 -13v-116q-152 18 -208 18q-77 0 -106 -13t-29 -44v-46
q0 -51 86 -51h78q114 0 162.5 -42t48.5 -124zM453 845l-56 -127h-187l-58 127h98l53 -87l52 87h98z" />
    <glyph glyph-name="scaron" unicode="&#x161;" horiz-adv-x="525" 
d="M481 189v-61q0 -36 -13.5 -62t-34 -40.5t-53.5 -22.5t-63.5 -10.5t-71.5 -2.5q-79 0 -191 15v97q139 -21 193 -21q43 0 66.5 8.5t23.5 33.5v30q0 23 -13 34.5t-56 11.5h-63q-76 0 -118.5 30.5t-42.5 89.5v59q0 66 63 91t178 25q48 0 172 -9v-93q-156 12 -176 12
q-61 0 -77 -8.5t-16 -32.5v-26q0 -12 12.5 -22t38.5 -10h64q178 0 178 -116zM413 680l-56 -127h-187l-58 127h98l53 -87l52 87h98z" />
    <glyph glyph-name="Tcommaaccent" unicode="&#x162;" horiz-adv-x="595" 
d="M575 538h-199v-538h-156v538h-200v111h555v-111zM387 -46l-83 -162h-96l46 162h133z" />
    <glyph glyph-name="tcommaaccent" unicode="&#x163;" horiz-adv-x="407" 
d="M387 -5q-42 -5 -81 -5q-34 0 -59.5 2.5t-53 12t-45 25t-29 44t-11.5 67.5v253h-98v90h98v140h146v-140h133v-90h-133v-228q0 -50 15 -67.5t66 -17.5q17 0 52 5v-91zM293 -46l-83 -162h-96l46 162h133z" />
    <glyph glyph-name="Tcaron" unicode="&#x164;" horiz-adv-x="595" 
d="M575 538h-199v-538h-156v538h-200v111h555v-111zM448 845l-56 -127h-187l-58 127h98l53 -87l52 87h98z" />
    <glyph glyph-name="tcaron" unicode="&#x165;" horiz-adv-x="407" 
d="M387 -5q-42 -5 -81 -5q-34 0 -59.5 2.5t-53 12t-45 25t-29 44t-11.5 67.5v253h-98v90h98v140h146v-140h133v-90h-133v-228q0 -50 15 -67.5t66 -17.5q17 0 52 5v-91zM460 730l-64 -163h-96l26 163h134z" />
    <glyph glyph-name="Tbar" unicode="&#x166;" horiz-adv-x="595" 
d="M575 538h-199v-158h108v-99h-108v-281h-156v281h-112v99h112v158h-200v111h555v-111z" />
    <glyph glyph-name="tbar" unicode="&#x167;" horiz-adv-x="407" 
d="M387 -2q-42 -5 -81 -5q-35 0 -60 2.5t-53 11t-45 24t-28.5 43.5t-11.5 67v96h-98v87h98v73h-98v87h98v150h146v-150h133v-87h-133v-73h133v-87h-133v-71q0 -55 12 -69.5t69 -14.5q17 0 52 5v-89z" />
    <glyph glyph-name="Utilde" unicode="&#x168;" horiz-adv-x="699" 
d="M631 649v-471q0 -188 -282 -188q-281 0 -281 188v471h156v-471q0 -44 29 -60.5t98 -16.5q68 0 96 16.5t28 60.5v471h156zM412 824q28 0 41 33l41 -24q-7 -24 -31 -53t-60 -29q-25 0 -65 16.5t-51 16.5q-29 0 -42 -33l-40 24q6 23 30.5 51t60.5 28q23 0 61.5 -15t54.5 -15
z" />
    <glyph glyph-name="utilde" unicode="&#x169;" horiz-adv-x="595" 
d="M531 0h-144v59q-17 -69 -155 -69q-96 0 -132 34.5t-36 104.5v355h146v-335q0 -40 13.5 -54t64.5 -14q63 0 80 13.5t17 54.5v335h146v-484zM360 659q28 0 41 33l41 -24q-7 -24 -31 -53t-60 -29q-25 0 -65 16.5t-51 16.5q-29 0 -42 -33l-40 24q6 23 30.5 51t60.5 28
q23 0 61.5 -15t54.5 -15z" />
    <glyph glyph-name="Umacron" unicode="&#x16a;" horiz-adv-x="699" 
d="M631 649v-471q0 -188 -282 -188q-281 0 -281 188v471h156v-471q0 -44 29 -60.5t98 -16.5q68 0 96 16.5t28 60.5v471h156zM488 725h-278v89h278v-89z" />
    <glyph glyph-name="umacron" unicode="&#x16b;" horiz-adv-x="595" 
d="M531 0h-144v59q-17 -69 -155 -69q-96 0 -132 34.5t-36 104.5v355h146v-335q0 -40 13.5 -54t64.5 -14q63 0 80 13.5t17 54.5v335h146v-484zM436 560h-278v89h278v-89z" />
    <glyph glyph-name="Ubreve" unicode="&#x16c;" horiz-adv-x="699" 
d="M631 649v-471q0 -188 -282 -188q-281 0 -281 188v471h156v-471q0 -44 29 -60.5t98 -16.5q68 0 96 16.5t28 60.5v471h156zM487 845q-4 -57 -40.5 -92t-97.5 -35q-62 0 -98.5 35t-39.5 92h81q6 -29 18 -42t39 -13q50 0 56 55h82z" />
    <glyph glyph-name="ubreve" unicode="&#x16d;" horiz-adv-x="595" 
d="M531 0h-144v59q-17 -69 -155 -69q-96 0 -132 34.5t-36 104.5v355h146v-335q0 -40 13.5 -54t64.5 -14q63 0 80 13.5t17 54.5v335h146v-484zM435 680q-4 -57 -40.5 -92t-97.5 -35q-62 0 -98.5 35t-39.5 92h81q6 -29 18 -42t39 -13q50 0 56 55h82z" />
    <glyph glyph-name="Uring" unicode="&#x16e;" horiz-adv-x="699" 
d="M631 649v-471q0 -188 -282 -188q-281 0 -281 188v471h156v-471q0 -44 29 -60.5t98 -16.5q68 0 96 16.5t28 60.5v471h156zM498 816q0 -33 -11 -54t-34.5 -30t-45.5 -11.5t-58 -2.5t-58 2.5t-45.5 11.5t-34.5 30t-11 54v12q0 29 8.5 49t20.5 30.5t33.5 16.5t39.5 7t47 1
t47 -1t39.5 -7t33.5 -16.5t20.5 -30.5t8.5 -49v-12zM419 809v27q0 29 -12 36.5t-58 7.5t-58 -7.5t-12 -36.5v-27q0 -24 14.5 -31.5t55.5 -7.5t55.5 7.5t14.5 31.5z" />
    <glyph glyph-name="uring" unicode="&#x16f;" horiz-adv-x="595" 
d="M531 0h-144v59q-17 -69 -155 -69q-96 0 -132 34.5t-36 104.5v355h146v-335q0 -40 13.5 -54t64.5 -14q63 0 80 13.5t17 54.5v335h146v-484zM446 651q0 -33 -11 -54t-34.5 -30t-45.5 -11.5t-58 -2.5t-58 2.5t-45.5 11.5t-34.5 30t-11 54v12q0 29 8.5 49t20.5 30.5
t33.5 16.5t39.5 7t47 1t47 -1t39.5 -7t33.5 -16.5t20.5 -30.5t8.5 -49v-12zM367 644v27q0 29 -12 36.5t-58 7.5t-58 -7.5t-12 -36.5v-27q0 -24 14.5 -31.5t55.5 -7.5t55.5 7.5t14.5 31.5z" />
    <glyph glyph-name="Uhungarumlaut" unicode="&#x170;" horiz-adv-x="699" 
d="M631 649v-471q0 -188 -282 -188q-281 0 -281 188v471h156v-471q0 -44 29 -60.5t98 -16.5q68 0 96 16.5t28 60.5v471h156zM506 845l-70 -128h-96l70 128h96zM359 845l-70 -128h-96l70 128h96z" />
    <glyph glyph-name="uhungarumlaut" unicode="&#x171;" horiz-adv-x="595" 
d="M531 0h-144v59q-17 -69 -155 -69q-96 0 -132 34.5t-36 104.5v355h146v-335q0 -40 13.5 -54t64.5 -14q63 0 80 13.5t17 54.5v335h146v-484zM454 680l-70 -128h-96l70 128h96zM307 680l-70 -128h-96l70 128h96z" />
    <glyph glyph-name="Uogonek" unicode="&#x172;" horiz-adv-x="703" 
d="M375 -186q-49 0 -74 18.5t-25 61.5q0 47 30 98q-236 13 -236 186v471h149v-475q0 -43 32 -60t102 -17q69 0 100 16.5t31 60.5v475h149v-471q0 -169 -232 -186q-24 -38 -24 -75q0 -16 8 -24t30 -8q12 0 30 6v-67q-21 -10 -70 -10z" />
    <glyph glyph-name="uogonek" unicode="&#x173;" horiz-adv-x="595" 
d="M460 -186q-50 0 -74.5 18.5t-24.5 61.5q0 42 26 106v59q-17 -69 -155 -69q-96 0 -132 34.5t-36 104.5v355h146v-335q0 -40 13.5 -54t64.5 -14q63 0 80 13.5t17 54.5v335h146v-484q-69 -44 -69 -83q0 -16 8 -24t30 -8q12 0 30 6v-67q-21 -10 -70 -10z" />
    <glyph glyph-name="Wcircumflex" unicode="&#x174;" horiz-adv-x="985" 
d="M977 649l-208 -649h-154l-124 471l-128 -471h-154l-201 649h162l126 -474l126 474h145l136 -474l116 474h158zM643 718h-98l-53 87l-52 -87h-98l56 127h187z" />
    <glyph glyph-name="wcircumflex" unicode="&#x175;" horiz-adv-x="822" 
d="M814 484l-158 -484h-148l-96 327l-94 -327h-148l-162 484h149l90 -351l96 351h143l100 -351l86 351h142zM561 553h-98l-53 87l-52 -87h-98l56 127h187z" />
    <glyph glyph-name="Ycircumflex" unicode="&#x176;" horiz-adv-x="644" 
d="M636 649l-237 -387v-262h-156v260l-235 389h177l137 -254l136 254h178zM472 718h-98l-53 87l-52 -87h-98l56 127h187z" />
    <glyph glyph-name="ycircumflex" unicode="&#x177;" horiz-adv-x="534" 
d="M526 484l-265 -692h-148l88 212l-193 480h159l109 -342l99 342h151zM417 553h-98l-53 87l-52 -87h-98l56 127h187z" />
    <glyph glyph-name="Ydieresis" unicode="&#x178;" horiz-adv-x="644" 
d="M636 649l-237 -387v-262h-156v260l-235 389h177l137 -254l136 254h178zM480 730h-126v118h126v-118zM290 730h-126v118h126v-118z" />
    <glyph glyph-name="Zacute" unicode="&#x179;" horiz-adv-x="612" 
d="M576 0h-536v95l338 443h-328v111h520v-94l-338 -443h344v-112zM430 845l-125 -127h-124l90 127h159z" />
    <glyph glyph-name="zacute" unicode="&#x17a;" horiz-adv-x="512" 
d="M476 0h-436v78l244 311h-234v95h420v-78l-244 -311h250v-95zM380 680l-125 -127h-124l90 127h159z" />
    <glyph glyph-name="Zdotaccent" unicode="&#x17b;" horiz-adv-x="612" 
d="M576 0h-536v95l338 443h-328v111h520v-94l-338 -443h344v-112zM379 730h-146v115h146v-115z" />
    <glyph glyph-name="zdotaccent" unicode="&#x17c;" horiz-adv-x="512" 
d="M476 0h-436v78l244 311h-234v95h420v-78l-244 -311h250v-95zM329 565h-146v115h146v-115z" />
    <glyph glyph-name="Zcaron" unicode="&#x17d;" horiz-adv-x="612" 
d="M576 0h-536v95l338 443h-328v111h520v-94l-338 -443h344v-112zM456 845l-56 -127h-187l-58 127h98l53 -87l52 87h98z" />
    <glyph glyph-name="zcaron" unicode="&#x17e;" horiz-adv-x="512" 
d="M476 0h-436v78l244 311h-234v95h420v-78l-244 -311h250v-95zM406 680l-56 -127h-187l-58 127h98l53 -87l52 87h98z" />
    <glyph glyph-name="longs" unicode="&#x17f;" horiz-adv-x="320" 
d="M398 612q-60 8 -86 8q-36 0 -50.5 -11.5t-14.5 -43.5v-565h-146v394h-91v90h91v73q0 89 45 121t143 32q42 0 109 -8v-90z" />
    <glyph glyph-name="florin" unicode="&#x192;" horiz-adv-x="408" 
d="M398 593q-60 8 -76 8q-52 0 -63.5 -8.5t-11.5 -42.5v-66h141v-87h-141v-437q0 -86 -51.5 -116.5t-149.5 -30.5q-30 0 -47 1v96q6 -1 18 -1q54 0 69 14t15 70v404h-91v87h91v58q0 89 45 121t143 32q42 0 109 -8v-94z" />
    <glyph glyph-name="Scommaaccent" unicode="&#x218;" horiz-adv-x="606" 
d="M388 -46l-83 -150h-96l46 150h133zM568 228v-43q0 -58 -21 -97.5t-62 -60t-89.5 -29t-115.5 -8.5q-93 0 -230 18v119q166 -26 232 -26q130 0 130 67v42q0 29 -17 47.5t-68 18.5h-76q-214 0 -214 170v48q0 84 70.5 124.5t225.5 40.5q75 0 203 -13v-116q-152 18 -208 18
q-77 0 -106 -13t-29 -44v-46q0 -51 86 -51h78q114 0 162.5 -42t48.5 -124z" />
    <glyph glyph-name="scommaaccent" unicode="&#x219;" horiz-adv-x="525" 
d="M481 189v-61q0 -36 -13.5 -62t-34 -40.5t-53.5 -22.5t-63.5 -10.5t-71.5 -2.5q-79 0 -191 15v97q139 -21 193 -21q43 0 66.5 8.5t23.5 33.5v30q0 23 -13 34.5t-56 11.5h-63q-76 0 -118.5 30.5t-42.5 89.5v59q0 66 63 91t178 25q48 0 172 -9v-93q-156 12 -176 12
q-61 0 -77 -8.5t-16 -32.5v-26q0 -12 12.5 -22t38.5 -10h64q178 0 178 -116zM352 -46l-83 -162h-96l46 162h133z" />
    <glyph glyph-name="uni021A" unicode="&#x21a;" horiz-adv-x="593" 
d="M367 -43l-83 -150h-96l46 150h133zM575 538h-199v-538h-156v538h-200v111h555v-111z" />
    <glyph glyph-name="uni021B" unicode="&#x21b;" horiz-adv-x="407" 
d="M387 -5q-42 -5 -81 -5q-34 0 -59.5 2.5t-53 12t-45 25t-29 44t-11.5 67.5v253h-98v90h98v140h146v-140h133v-90h-133v-228q0 -50 15 -67.5t66 -17.5q17 0 52 5v-91zM293 -46l-83 -162h-96l46 162h133z" />
    <glyph glyph-name="dotlessj" unicode="&#x237;" horiz-adv-x="274" 
d="M210 484v-557q0 -86 -51.5 -116.5t-149.5 -30.5q-13 0 -47 2v95q6 -1 18 -1q54 0 69 14t15 70v524h146z" />
    <glyph glyph-name="apostrophe" unicode="&#x2bc;" horiz-adv-x="256" 
d="M203 700l-64 -163h-96l26 163h134z" />
    <glyph glyph-name="circumflex" unicode="&#x2c6;" horiz-adv-x="400" 
d="M351 553h-98l-53 87l-52 -87h-98l56 127h187z" />
    <glyph glyph-name="caron" unicode="&#x2c7;" horiz-adv-x="400" 
d="M351 680l-56 -127h-187l-58 127h98l53 -87l52 87h98z" />
    <glyph glyph-name="uni02C9" unicode="&#x2c9;" horiz-adv-x="400" 
d="M339 560h-278v89h278v-89z" />
    <glyph glyph-name="breve" unicode="&#x2d8;" horiz-adv-x="400" 
d="M338 680q-4 -57 -40.5 -92t-97.5 -35q-62 0 -98.5 35t-39.5 92h81q6 -29 18 -42t39 -13q50 0 56 55h82z" />
    <glyph glyph-name="dotaccent" unicode="&#x2d9;" horiz-adv-x="400" 
d="M273 565h-146v115h146v-115z" />
    <glyph glyph-name="ring" unicode="&#x2da;" horiz-adv-x="400" 
d="M349 651q0 -33 -11 -54t-34.5 -30t-45.5 -11.5t-58 -2.5t-58 2.5t-45.5 11.5t-34.5 30t-11 54v12q0 29 8.5 49t20.5 30.5t33.5 16.5t39.5 7t47 1t47 -1t39.5 -7t33.5 -16.5t20.5 -30.5t8.5 -49v-12zM270 644v27q0 29 -12 36.5t-58 7.5t-58 -7.5t-12 -36.5v-27
q0 -24 14.5 -31.5t55.5 -7.5t55.5 7.5t14.5 31.5z" />
    <glyph glyph-name="ogonek" unicode="&#x2db;" horiz-adv-x="400" 
d="M214 -186q-50 0 -74.5 18.5t-24.5 61.5q0 50 36 106h95q-30 -47 -30 -83q0 -16 8 -24t30 -8q12 0 30 6v-67q-21 -10 -70 -10z" />
    <glyph glyph-name="tilde" unicode="&#x2dc;" horiz-adv-x="400" 
d="M263 659q28 0 41 33l41 -24q-7 -24 -31 -53t-60 -29q-25 0 -65 16.5t-51 16.5q-29 0 -42 -33l-40 24q6 23 30.5 51t60.5 28q23 0 61.5 -15t54.5 -15z" />
    <glyph glyph-name="hungarumlaut" unicode="&#x2dd;" horiz-adv-x="400" 
d="M356 680l-70 -128h-96l70 128h96zM209 680l-70 -128h-96l70 128h96z" />
    <glyph glyph-name="tonos" unicode="&#x384;" horiz-adv-x="301" 
d="M194 538h-86l-39 172h164z" />
    <glyph glyph-name="dieresistonos" unicode="&#x385;" horiz-adv-x="520" 
d="M478 565h-126v118h126v-118zM168 565h-126v118h126v-118zM294 538h-66l-39 172h144z" />
    <glyph glyph-name="Alphatonos" unicode="&#x386;" horiz-adv-x="713" 
d="M711 0h-158l-58 171h-237l-57 -171h-154l240 649h190zM461 275l-82 244h-4l-82 -244h168zM125 486h-86l-39 172h164z" />
    <glyph glyph-name="Epsilontonos" unicode="&#x388;" horiz-adv-x="751" 
d="M716 0h-505v649h495v-111h-339v-149h306v-111h-306v-167h349v-111zM125 486h-86l-39 172h164z" />
    <glyph glyph-name="Etatonos" unicode="&#x389;" horiz-adv-x="869" 
d="M799 0h-156v278h-276v-278h-156v649h156v-260h276v260h156v-649zM125 486h-86l-39 172h164z" />
    <glyph glyph-name="Iotatonos" unicode="&#x38a;" horiz-adv-x="437" 
d="M367 0h-156v649h156v-649zM125 486h-86l-39 172h164z" />
    <glyph glyph-name="Omicrontonos" unicode="&#x38c;" horiz-adv-x="869" 
d="M813 462v-284q0 -55 -29 -94t-78 -58.5t-98 -27.5t-104 -8q-52 0 -97.5 6.5t-97 24.5t-82 58t-30.5 99v284q0 50 22.5 88t54 58t76.5 32.5t80 15.5t74 3q40 0 75.5 -3t80.5 -15.5t77 -32.5t54 -57.5t22 -88.5zM657 178v285q0 47 -38.5 66t-113.5 19q-76 0 -114 -18.5
t-38 -66.5v-285q0 -25 13 -41.5t37.5 -23.5t47 -9.5t55.5 -2.5t55.5 2.5t46.5 9.5t36.5 23.5t12.5 41.5zM125 486h-86l-39 172h164z" />
    <glyph glyph-name="Upsilontonos" unicode="&#x38e;" horiz-adv-x="835" 
d="M827 649l-237 -387v-262h-156v260l-235 389h177l137 -254l136 254h178zM125 486h-86l-39 172h164z" />
    <glyph glyph-name="Omegatonos" unicode="&#x38f;" horiz-adv-x="871" 
d="M821 0h-275v117q45 2 79 32.5t34 73.5v247q0 47 -39 66t-114 19t-114 -19t-39 -66v-247q0 -43 34 -73.5t79 -32.5v-117h-275v101h132q-120 53 -120 187v174q0 197 303 197t303 -197v-174q0 -134 -120 -187h132v-101zM125 486h-86l-39 172h164z" />
    <glyph glyph-name="iotadieresistonos" unicode="&#x390;" horiz-adv-x="308" 
d="M288 -2q-42 -5 -70 -5q-43 0 -66.5 4.5t-44.5 19t-29 44.5t-8 80v343h146v-357q0 -44 31 -44q13 0 41 4v-89zM372 565h-126v118h126v-118zM62 565h-126v118h126v-118zM188 538h-66l-39 172h144z" />
    <glyph glyph-name="Alpha" unicode="&#x391;" horiz-adv-x="668" 
d="M666 0h-158l-58 171h-237l-57 -171h-154l240 649h190zM416 275l-82 244h-4l-82 -244h168z" />
    <glyph glyph-name="Beta" unicode="&#x392;" horiz-adv-x="635" 
d="M598 245v-100q0 -81 -65 -113t-193 -32h-270v649h263q138 0 187 -31t49 -108v-80q0 -28 -22 -52t-50 -32v-5q36 -4 68.5 -32t32.5 -64zM419 450v32q0 32 -15 44t-74 12h-104v-153h107q55 0 70.5 14t15.5 51zM442 166v52q0 36 -18.5 51t-65.5 15h-132v-173h111q57 0 81 13
t24 42z" />
    <glyph glyph-name="Gamma" unicode="&#x393;" horiz-adv-x="517" 
d="M495 538h-269v-538h-156v649h425v-111z" />
    <glyph glyph-name="Delta" unicode="&#x394;" horiz-adv-x="652" 
d="M-6 0l240 649h191l233 -649h-664zM322 519l-137 -408h278l-137 408h-4z" />
    <glyph glyph-name="Delta" unicode="&#x2206;" horiz-adv-x="652" 
d="M-6 0l240 649h191l233 -649h-664zM322 519l-137 -408h278l-137 408h-4z" />
    <glyph glyph-name="Epsilon" unicode="&#x395;" horiz-adv-x="610" 
d="M575 0h-505v649h495v-111h-339v-149h306v-111h-306v-167h349v-111z" />
    <glyph glyph-name="Zeta" unicode="&#x396;" horiz-adv-x="612" 
d="M576 0h-536v95l338 443h-328v111h520v-94l-338 -443h344v-112z" />
    <glyph glyph-name="Eta" unicode="&#x397;" horiz-adv-x="728" 
d="M658 0h-156v278h-276v-278h-156v649h156v-260h276v260h156v-649z" />
    <glyph glyph-name="Theta" unicode="&#x398;" horiz-adv-x="728" 
d="M672 462v-284q0 -55 -29 -94t-78 -58.5t-98 -27.5t-104 -8q-52 0 -97.5 6.5t-97 24.5t-82 58t-30.5 99v284q0 50 22.5 88t54 58t76.5 32.5t80 15.5t74 3q40 0 75.5 -3t80.5 -15.5t77 -32.5t54 -57.5t22 -88.5zM516 178v285q0 47 -38.5 66t-113.5 19q-76 0 -114 -18.5
t-38 -66.5v-285q0 -25 13 -41.5t37.5 -23.5t47 -9.5t55.5 -2.5t55.5 2.5t46.5 9.5t36.5 23.5t12.5 41.5zM260 278v111h213v-111h-213z" />
    <glyph glyph-name="Iota" unicode="&#x399;" horiz-adv-x="296" 
d="M226 0h-156v649h156v-649z" />
    <glyph glyph-name="Kappa" unicode="&#x39a;" horiz-adv-x="667" 
d="M70 0v649h153v-259q37 0 53 7t30 30l69 114q42 69 76.5 88.5t116.5 19.5h71v-111h-41q-50 0 -64 -7.5t-37 -44.5l-40 -65q-19 -30 -34.5 -43.5t-38.5 -22.5q25 -6 65 -43t82 -100l142 -212h-181l-124 191q-39 60 -66.5 75.5t-78.5 15.5v-282h-153z" />
    <glyph glyph-name="Lambda" unicode="&#x39b;" horiz-adv-x="668" 
d="M508 0l-174 519h-4l-174 -519h-154l240 649h190l234 -649h-158z" />
    <glyph glyph-name="Mu" unicode="&#x39c;" horiz-adv-x="889" 
d="M819 0h-141v480h-3l-164 -480h-125l-169 480h-4v-480h-143v649h222l160 -464l158 464h209v-649z" />
    <glyph glyph-name="Nu" unicode="&#x39d;" horiz-adv-x="751" 
d="M681 0h-158l-314 450v-450h-139v649h158l314 -443v443h139v-649z" />
    <glyph glyph-name="Xi" unicode="&#x39e;" horiz-adv-x="695" 
d="M70 0v111h555v-111h-555zM70 538v111h555v-111h-555zM120 278v111h455v-111h-455z" />
    <glyph glyph-name="Omicron" unicode="&#x39f;" horiz-adv-x="728" 
d="M672 462v-284q0 -55 -29 -94t-78 -58.5t-98 -27.5t-104 -8q-52 0 -97.5 6.5t-97 24.5t-82 58t-30.5 99v284q0 50 22.5 88t54 58t76.5 32.5t80 15.5t74 3q40 0 75.5 -3t80.5 -15.5t77 -32.5t54 -57.5t22 -88.5zM516 178v285q0 47 -38.5 66t-113.5 19q-76 0 -114 -18.5
t-38 -66.5v-285q0 -25 13 -41.5t37.5 -23.5t47 -9.5t55.5 -2.5t55.5 2.5t46.5 9.5t36.5 23.5t12.5 41.5z" />
    <glyph glyph-name="Pi" unicode="&#x3a0;" horiz-adv-x="722" 
d="M652 0h-156v538h-270v-538h-156v649h582v-649z" />
    <glyph glyph-name="Rho" unicode="&#x3a1;" horiz-adv-x="627" 
d="M587 500v-123q0 -96 -64 -131t-211 -35h-86v-211h-156v649h260q138 0 197.5 -30.5t59.5 -118.5zM436 382v104q0 31 -24 41.5t-89 10.5h-97v-220h99q61 0 86 14.5t25 49.5z" />
    <glyph glyph-name="Sigma" unicode="&#x3a3;" horiz-adv-x="582" 
d="M549 0h-512v117l255 217l-255 193v122h502v-108h-315l202 -157v-95l-212 -178h335v-111z" />
    <glyph glyph-name="Tau" unicode="&#x3a4;" horiz-adv-x="595" 
d="M575 538h-199v-538h-156v538h-200v111h555v-111z" />
    <glyph glyph-name="Upsilon" unicode="&#x3a5;" horiz-adv-x="644" 
d="M636 649l-237 -387v-262h-156v260l-235 389h177l137 -254l136 254h178z" />
    <glyph glyph-name="Phi" unicode="&#x3a6;" horiz-adv-x="756" 
d="M452 0h-148v63q-67 0 -122 17t-93.5 60.5t-38.5 107.5v144q0 67 40 112.5t95 63t119 17.5v64h148v-64q64 0 119 -17.5t95 -63t40 -112.5v-144q0 -60 -39 -103.5t-95 -62.5t-120 -19v-63zM550 244v154q0 36 -26.5 58t-71.5 22v-308q43 0 70.5 19.5t27.5 54.5zM206 244
q0 -35 28 -54t70 -19v307q-44 0 -71 -22t-27 -58v-154z" />
    <glyph glyph-name="Chi" unicode="&#x3a7;" horiz-adv-x="677" 
d="M668 0h-181l-148 230l-149 -230h-180l239 331l-229 318h180l139 -216l138 216h180l-229 -318z" />
    <glyph glyph-name="Psi" unicode="&#x3a8;" horiz-adv-x="817" 
d="M486 0h-156v211q-44 3 -87.5 15.5t-83.5 35t-64.5 60t-24.5 84.5v243h148v-220q0 -55 27 -80t85 -30v330h156v-330q58 6 85.5 30.5t27.5 79.5v220h148v-243q0 -46 -25 -83.5t-65.5 -60t-83.5 -35t-87 -15.5v-212z" />
    <glyph glyph-name="Omega" unicode="&#x3a9;" horiz-adv-x="730" 
d="M680 0h-275v117q45 2 79 32.5t34 73.5v247q0 47 -39 66t-114 19t-114 -19t-39 -66v-247q0 -43 34 -73.5t79 -32.5v-117h-275v101h132q-120 53 -120 187v174q0 197 303 197t303 -197v-174q0 -134 -120 -187h132v-101z" />
    <glyph glyph-name="Omega" unicode="&#x2126;" horiz-adv-x="730" 
d="M680 0h-275v117q45 2 79 32.5t34 73.5v247q0 47 -39 66t-114 19t-114 -19t-39 -66v-247q0 -43 34 -73.5t79 -32.5v-117h-275v101h132q-120 53 -120 187v174q0 197 303 197t303 -197v-174q0 -134 -120 -187h132v-101z" />
    <glyph glyph-name="Iotadieresis" unicode="&#x3aa;" horiz-adv-x="296" 
d="M226 0h-156v649h156v-649zM306 730h-126v118h126v-118zM116 730h-126v118h126v-118z" />
    <glyph glyph-name="Upsilondieresis" unicode="&#x3ab;" horiz-adv-x="644" 
d="M636 649l-237 -387v-262h-156v260l-235 389h177l137 -254l136 254h178zM480 730h-126v118h126v-118zM290 730h-126v118h126v-118z" />
    <glyph glyph-name="alphatonos" unicode="&#x3ac;" horiz-adv-x="607" 
d="M397 145v195q0 36 -19.5 50t-83.5 14q-67 0 -83 -13t-16 -56v-185q0 -40 16 -54.5t75 -14.5q71 0 91 12.5t20 51.5zM403 46h-4q-23 -37 -48 -46.5t-102 -9.5q-124 0 -161.5 31t-37.5 138v189q0 81 48.5 113.5t149.5 32.5q72 0 101 -13.5t54 -50.5l5 54h135l-15 -230
l9 -131q3 -51 44 -51h10v-72h-129q-24 0 -40 13.5t-19 32.5zM346 538h-86l-39 172h164z" />
    <glyph glyph-name="epsilontonos" unicode="&#x3ad;" horiz-adv-x="501" 
d="M44 141v25q0 65 88 97q-25 7 -43.5 26.5t-18.5 50.5v27q0 74 52.5 100.5t168.5 26.5q45 0 182 -9v-103q-101 12 -166 12q-52 0 -69.5 -11t-17.5 -30v-16q0 -44 68 -44h118v-88h-118q-44 0 -67.5 -9.5t-23.5 -35.5v-13q0 -57 93 -57q90 0 189 26v-108q-85 -18 -208 -18
q-120 0 -173.5 33.5t-53.5 117.5zM333 538h-86l-39 172h164z" />
    <glyph glyph-name="etatonos" unicode="&#x3ae;" horiz-adv-x="595" 
d="M531 -208h-146v544q0 40 -13.5 54t-64.5 14q-63 0 -80 -13.5t-17 -54.5v-336h-146v484h144v-59q17 69 155 69q96 0 132 -34.5t36 -104.5v-563zM340 538h-86l-39 172h164z" />
    <glyph glyph-name="iotatonos" unicode="&#x3af;" horiz-adv-x="308" 
d="M288 -2q-42 -5 -70 -5q-43 0 -66.5 4.5t-44.5 19t-29 44.5t-8 80v343h146v-357q0 -44 31 -44q13 0 41 4v-89zM187 538h-86l-39 172h164z" />
    <glyph glyph-name="upsilondieresistonos" unicode="&#x3b0;" horiz-adv-x="605" 
d="M325 484h145q65 -135 65 -276q0 -66 -19.5 -111t-54.5 -67t-73 -31t-86 -9q-50 0 -86.5 6.5t-72 25t-54.5 58t-19 98.5v306h145v-305q0 -50 16.5 -69.5t72.5 -19.5q53 0 69.5 30t16.5 86q0 133 -65 278zM520 565h-126v118h126v-118zM210 565h-126v118h126v-118zM336 538
h-66l-39 172h144z" />
    <glyph glyph-name="alpha" unicode="&#x3b1;" horiz-adv-x="607" 
d="M397 145v195q0 36 -19.5 50t-83.5 14q-67 0 -83 -13t-16 -56v-185q0 -40 16 -54.5t75 -14.5q71 0 91 12.5t20 51.5zM403 46h-4q-23 -37 -48 -46.5t-102 -9.5q-124 0 -161.5 31t-37.5 138v189q0 81 48.5 113.5t149.5 32.5q72 0 101 -13.5t54 -50.5l5 54h135l-15 -230
l9 -131q3 -51 44 -51h10v-72h-129q-24 0 -40 13.5t-19 32.5z" />
    <glyph glyph-name="beta" unicode="&#x3b2;" horiz-adv-x="629" 
d="M589 245v-110q0 -82 -61 -113.5t-187 -31.5q-64 0 -131 25v-187h-146v692q0 53 17.5 80.5t74.5 43t168 15.5q131 0 183.5 -35t52.5 -104v-90q0 -28 -21.5 -52t-49.5 -32l-1 -5q36 -4 68.5 -32t32.5 -64zM210 524v-408q50 -22 121 -22q62 0 86.5 10.5t24.5 37.5v96
q0 20 -14.5 31t-31.5 13t-44 2h-75v98h50q55 0 73.5 11t18.5 34v97q0 11 -5.5 18t-27.5 12.5t-62 5.5q-114 0 -114 -36z" />
    <glyph glyph-name="gamma" unicode="&#x3b3;" horiz-adv-x="510" 
d="M331 -208h-146v206l-185 486h155l114 -349q89 128 94 349h147q-24 -279 -179 -485v-207z" />
    <glyph glyph-name="delta" unicode="&#x3b4;" horiz-adv-x="620" 
d="M570 270v-117q0 -45 -16 -76t-39.5 -48t-63 -26t-71 -11t-80.5 -2q-250 0 -250 163v107q0 42 9 72t24.5 49t42.5 33.5t55.5 24t72.5 22.5q10 3 15 4q-125 76 -125 147q0 88 131 88h215v-86h-145q-39 0 -39 -22q0 -4 4 -9.5t13 -13.5t17.5 -15t23.5 -18t25 -20
q16 -13 43.5 -35.5t37 -31t28 -24t24 -22t17 -19t14 -20t8 -18.5t6.5 -22t2 -24t1 -30zM431 170v84q0 12 -0.5 21.5t-3 18.5t-3.5 14.5t-7.5 13.5t-9.5 12t-13.5 13.5t-16 14t-21 17.5t-24.5 20q-69 -20 -97.5 -36t-37 -35.5t-8.5 -63.5v-94q0 -91 111 -91q39 0 59 2
t39 10.5t26 27.5t7 51z" />
    <glyph glyph-name="epsilon" unicode="&#x3b5;" horiz-adv-x="501" 
d="M44 141v25q0 65 88 97q-25 7 -43.5 26.5t-18.5 50.5v27q0 74 52.5 100.5t168.5 26.5q45 0 182 -9v-103q-101 12 -166 12q-52 0 -69.5 -11t-17.5 -30v-16q0 -44 68 -44h118v-88h-118q-44 0 -67.5 -9.5t-23.5 -35.5v-13q0 -57 93 -57q90 0 189 26v-108q-85 -18 -208 -18
q-120 0 -173.5 33.5t-53.5 117.5z" />
    <glyph glyph-name="zeta" unicode="&#x3b6;" horiz-adv-x="457" 
d="M233 355v-179q0 -38 22.5 -50.5t89.5 -23.5q52 -8 77 -39.5t25 -114.5v-85h-128v53.5t-5 34.5t-9.5 24.5t-20.5 12.5t-31.5 8t-48.5 4q-19 1 -37.5 8t-40 23t-34.5 50.5t-13 83.5v177q0 41 22 85t59 78h-150v116h231q73 73 141 73q28 0 49.5 -20t21.5 -49
q0 -46 -38 -78.5t-105 -39.5q-77 -54 -77 -152z" />
    <glyph glyph-name="eta" unicode="&#x3b7;" horiz-adv-x="595" 
d="M531 -208h-146v544q0 40 -13.5 54t-64.5 14q-63 0 -80 -13.5t-17 -54.5v-336h-146v484h144v-59q17 69 155 69q96 0 132 -34.5t36 -104.5v-563z" />
    <glyph glyph-name="theta" unicode="&#x3b8;" 
d="M529 471v-302q0 -48 -15 -82.5t-36.5 -52.5t-56.5 -28.5t-63.5 -13t-68.5 -2.5q-41 0 -70 2.5t-63.5 12.5t-55 28.5t-35 53t-14.5 82.5v302q0 51 15 87t36.5 55.5t56 30t62.5 13t68 2.5q41 0 69.5 -2.5t63.5 -13t56 -30t36 -55.5t15 -87zM381 156v127h-182v-127
q0 -47 14 -61t78 -14q34 0 52 3t26.5 13.5t10 21.5t1.5 37zM199 487v-114h182v114q0 53 -14.5 68t-76.5 15q-64 0 -77.5 -14.5t-13.5 -68.5z" />
    <glyph glyph-name="iota" unicode="&#x3b9;" horiz-adv-x="308" 
d="M288 -2q-42 -5 -70 -5q-43 0 -66.5 4.5t-44.5 19t-29 44.5t-8 80v343h146v-357q0 -44 31 -44q13 0 41 4v-89z" />
    <glyph glyph-name="kappa" unicode="&#x3ba;" horiz-adv-x="554" 
d="M64 0v484h146v-194q22 0 30.5 4t18.5 21l47 77q41 68 64 80t113 12h48v-90h-16q-37 0 -54.5 -7.5t-33.5 -30.5l-28 -40q-26 -38 -49 -50q48 -20 96 -87l127 -179h-168l-92 135q-30 44 -48 55t-55 11v-201h-146z" />
    <glyph glyph-name="lambda" unicode="&#x3bb;" horiz-adv-x="496" 
d="M-8 0l179 483l-82 217h148l265 -700h-155l-106 335l-102 -335h-147z" />
    <glyph glyph-name="nu" unicode="&#x3bd;" horiz-adv-x="510" 
d="M510 484l-178 -484h-148l-184 484h155l106 -335l102 335h147z" />
    <glyph glyph-name="xi" unicode="&#x3be;" horiz-adv-x="550" 
d="M4 550v99h313q121 0 192 -9v-104q-103 12 -176 12q-97 0 -97 -43v-82q0 -24 22 -36.5t56 -12.5h118v-100h-118q-101 0 -101 -48v-65q0 -25 21.5 -40.5t81.5 -15.5q78 0 123 -7.5t70.5 -30t33 -53.5t7.5 -86q0 -46 -15 -89h-126q7 25 7 61q0 56 -24.5 78t-94.5 22
q-121 0 -179 35.5t-58 119.5v86q0 65 88 97q-25 7 -43.5 26.5t-18.5 50.5v76q0 39 11 59h-93z" />
    <glyph glyph-name="omicron" unicode="&#x3bf;" horiz-adv-x="592" 
d="M542 309v-143q0 -47 -15 -80.5t-37 -52t-57.5 -28.5t-65 -12.5t-71.5 -2.5t-71.5 2.5t-65 12.5t-57.5 28.5t-37 52t-15 80.5v143q0 50 15.5 85.5t38 54.5t58.5 29.5t64.5 13t69.5 2.5t69.5 -2.5t64.5 -13t58.5 -29.5t38 -54.5t15.5 -85.5zM396 149v183q0 39 -20 55.5
t-80 16.5t-80 -16.5t-20 -55.5v-183q0 -38 19.5 -53t80.5 -15t80.5 15t19.5 53z" />
    <glyph glyph-name="pi" unicode="&#x3c0;" horiz-adv-x="647" 
d="M617 -3q-33 -4 -80 -4q-45 0 -71 4.5t-49.5 19.5t-33 46.5t-9.5 83.5v250h-109v-397h-145v397h-90v87h579v-87h-90v-265q0 -34 10.5 -42t62.5 -8h25v-85z" />
    <glyph glyph-name="rho" unicode="&#x3c1;" horiz-adv-x="609" 
d="M560 312v-159q0 -44 -6.5 -71t-26.5 -49.5t-59 -32.5t-101 -10q-73 0 -108.5 12.5t-48.5 45.5v-264h-146v528q0 95 53 138.5t192 43.5q132 0 191.5 -41.5t59.5 -140.5zM414 152v179q0 43 -19.5 57.5t-83.5 14.5t-82.5 -14.5t-18.5 -57.5v-179q0 -40 19 -56t81 -16
q69 0 86.5 12.5t17.5 59.5z" />
    <glyph glyph-name="sigma1" unicode="&#x3c2;" horiz-adv-x="482" 
d="M50 152v166q0 36 8.5 63.5t21 46t35 31.5t41.5 19.5t49.5 10.5t51 4.5t53.5 0.5q55 0 147 -18v-96q-104 24 -158 24q-101 0 -101 -68v-178q0 -25 21 -40.5t82 -15.5q89 0 132 -16t57.5 -50.5t14.5 -107.5q0 -46 -15 -89h-126q7 25 7 61q0 59 -15 78t-74 19
q-120 0 -176 35.5t-56 119.5z" />
    <glyph glyph-name="sigma" unicode="&#x3c3;" horiz-adv-x="597" 
d="M628 394h-118q36 -30 36 -95v-133q0 -47 -15.5 -80.5t-37.5 -52t-58 -28.5t-65.5 -12.5t-71.5 -2.5t-71.5 2.5t-65.5 12.5t-58 28.5t-37.5 52t-15.5 80.5v143q0 50 16 85.5t38.5 54.5t58.5 29.5t65 13t70 2.5q32 0 89 -5t74 -5h167v-90zM398 146v186q0 39 -20 55.5
t-80 16.5t-80 -16.5t-20 -55.5v-186q0 -38 19.5 -51.5t80.5 -13.5t80.5 13.5t19.5 51.5z" />
    <glyph glyph-name="tau" unicode="&#x3c4;" horiz-adv-x="457" 
d="M387 -4q-50 -6 -70 -6q-43 0 -70 5t-51.5 20t-36 46t-11.5 80v253h-128v90h417v-90h-143v-249q0 -64 51 -64q21 0 42 3v-88z" />
    <glyph glyph-name="upsilon" unicode="&#x3c5;" horiz-adv-x="605" 
d="M325 484h145q65 -135 65 -276q0 -66 -19.5 -111t-54.5 -67t-73 -31t-86 -9q-50 0 -86.5 6.5t-72 25t-54.5 58t-19 98.5v306h145v-305q0 -50 16.5 -69.5t72.5 -19.5q53 0 69.5 30t16.5 86q0 133 -65 278z" />
    <glyph glyph-name="phi" unicode="&#x3c6;" horiz-adv-x="686" 
d="M241 492v-90q-25 -7 -34 -22.5t-9 -43.5v-193q0 -57 88 -64v254q0 27 3 48t7 37t13 28t16 20t21.5 13.5t24 8.5t29.5 4.5t31.5 1.5h35.5q94 0 131.5 -45t37.5 -140v-143q0 -50 -19.5 -84.5t-55 -52.5t-71 -26t-81.5 -11v-200h-123v199q-48 2 -84.5 9t-73.5 24.5
t-57.5 53.5t-20.5 88v143q0 52 15.5 88t44.5 55t60 28t71 12zM488 143v193q0 41 -8 54.5t-32 13.5q-21 0 -30 -14t-9 -53v-256q79 9 79 62z" />
    <glyph glyph-name="chi" unicode="&#x3c7;" horiz-adv-x="568" 
d="M559 -176h-169l-106 232l-105 -232h-169l190 328l-180 332h169l95 -235l96 235h169l-181 -332z" />
    <glyph glyph-name="psi" unicode="&#x3c8;" horiz-adv-x="817" 
d="M481 -208h-146v197q-62 4 -119 23.5t-101.5 64.5t-44.5 107v300h138v-277q0 -98 127 -110v387h146v-387q128 12 128 110v277h138v-300q0 -61 -45.5 -105.5t-102.5 -64.5t-118 -24v-198z" />
    <glyph glyph-name="omega" unicode="&#x3c9;" horiz-adv-x="836" 
d="M104 484h144q-41 -153 -41 -252q0 -89 15.5 -120t53.5 -31q37 0 54 26.5t17 84.5v196h144v-196q0 -58 17 -84.5t54 -26.5t52.5 31t15.5 120q0 68 -49 252h143q52 -150 52 -247q0 -78 -11.5 -127t-38.5 -75.5t-62.5 -35.5t-93.5 -9q-107 0 -151 52q-45 -52 -153 -52
q-115 0 -160.5 51t-45.5 197q0 66 8.5 117.5t35.5 128.5z" />
    <glyph glyph-name="iotadieresis" unicode="&#x3ca;" horiz-adv-x="308" 
d="M288 -2q-42 -5 -70 -5q-43 0 -66.5 4.5t-44.5 19t-29 44.5t-8 80v343h146v-357q0 -44 31 -44q13 0 41 4v-89zM312 565h-126v118h126v-118zM122 565h-126v118h126v-118z" />
    <glyph glyph-name="upsilondieresis" unicode="&#x3cb;" horiz-adv-x="605" 
d="M325 484h145q65 -135 65 -276q0 -66 -19.5 -111t-54.5 -67t-73 -31t-86 -9q-50 0 -86.5 6.5t-72 25t-54.5 58t-19 98.5v306h145v-305q0 -50 16.5 -69.5t72.5 -19.5q53 0 69.5 30t16.5 86q0 133 -65 278zM460 565h-126v118h126v-118zM270 565h-126v118h126v-118z" />
    <glyph glyph-name="omicrontonos" unicode="&#x3cc;" horiz-adv-x="592" 
d="M542 309v-143q0 -47 -15 -80.5t-37 -52t-57.5 -28.5t-65 -12.5t-71.5 -2.5t-71.5 2.5t-65 12.5t-57.5 28.5t-37 52t-15 80.5v143q0 50 15.5 85.5t38 54.5t58.5 29.5t64.5 13t69.5 2.5t69.5 -2.5t64.5 -13t58.5 -29.5t38 -54.5t15.5 -85.5zM396 149v183q0 39 -20 55.5
t-80 16.5t-80 -16.5t-20 -55.5v-183q0 -38 19.5 -53t80.5 -15t80.5 15t19.5 53zM339 538h-86l-39 172h164z" />
    <glyph glyph-name="upsilontonos" unicode="&#x3cd;" horiz-adv-x="605" 
d="M325 484h145q65 -135 65 -276q0 -66 -19.5 -111t-54.5 -67t-73 -31t-86 -9q-50 0 -86.5 6.5t-72 25t-54.5 58t-19 98.5v306h145v-305q0 -50 16.5 -69.5t72.5 -19.5q53 0 69.5 30t16.5 86q0 133 -65 278zM345 538h-86l-39 172h164z" />
    <glyph glyph-name="omegatonos" unicode="&#x3ce;" horiz-adv-x="836" 
d="M104 484h144q-41 -153 -41 -252q0 -89 15.5 -120t53.5 -31q37 0 54 26.5t17 84.5v196h144v-196q0 -58 17 -84.5t54 -26.5t52.5 31t15.5 120q0 68 -49 252h143q52 -150 52 -247q0 -78 -11.5 -127t-38.5 -75.5t-62.5 -35.5t-93.5 -9q-107 0 -151 52q-45 -52 -153 -52
q-115 0 -160.5 51t-45.5 197q0 66 8.5 117.5t35.5 128.5zM461 538h-86l-39 172h164z" />
    <glyph glyph-name="uni0400" unicode="&#x400;" horiz-adv-x="610" 
d="M575 0h-505v649h495v-111h-339v-149h306v-111h-306v-167h349v-111zM429 718h-124l-125 127h159z" />
    <glyph glyph-name="afii10023" unicode="&#x401;" horiz-adv-x="610" 
d="M575 0h-505v649h495v-111h-339v-149h306v-111h-306v-167h349v-111zM463 730h-126v118h126v-118zM273 730h-126v118h126v-118z" />
    <glyph glyph-name="afii10051" unicode="&#x402;" horiz-adv-x="844" 
d="M657 -162h-176q34 31 89.5 155t55.5 187q0 118 -113 118q-74 0 -105.5 -15t-31.5 -55v-228h-156v538h-200v111h555v-111h-199v-209q10 46 51 60t142 14q104 0 158.5 -54.5t54.5 -148.5q0 -62 -48.5 -197.5t-76.5 -164.5z" />
    <glyph glyph-name="afii10052" unicode="&#x403;" horiz-adv-x="517" 
d="M495 538h-269v-538h-156v649h425v-111zM443 845l-125 -127h-124l90 127h159z" />
    <glyph glyph-name="afii10053" unicode="&#x404;" horiz-adv-x="597" 
d="M567 12q-110 -22 -210 -22q-40 0 -75.5 3.5t-79 15t-74 31t-51.5 55t-21 83.5v285q0 196 301 196q74 0 206 -22v-117q-119 28 -204 28q-34 0 -55.5 -2t-45 -10t-35 -25.5t-11.5 -45.5v-76h265v-111h-265v-89q0 -88 161 -88q71 0 194 29v-118z" />
    <glyph glyph-name="afii10054" unicode="&#x405;" horiz-adv-x="606" 
d="M568 228v-43q0 -58 -21 -97.5t-62 -60t-89.5 -29t-115.5 -8.5q-93 0 -230 18v119q166 -26 232 -26q130 0 130 67v42q0 29 -17 47.5t-68 18.5h-76q-214 0 -214 170v48q0 84 70.5 124.5t225.5 40.5q75 0 203 -13v-116q-152 18 -208 18q-77 0 -106 -13t-29 -44v-46
q0 -51 86 -51h78q114 0 162.5 -42t48.5 -124z" />
    <glyph glyph-name="afii10055" unicode="&#x406;" horiz-adv-x="296" 
d="M226 0h-156v649h156v-649z" />
    <glyph glyph-name="afii10056" unicode="&#x407;" horiz-adv-x="296" 
d="M226 0h-156v649h156v-649zM306 730h-126v118h126v-118zM116 730h-126v118h126v-118z" />
    <glyph glyph-name="afii10057" unicode="&#x408;" horiz-adv-x="445" 
d="M377 649v-472q0 -105 -57 -146t-166 -41q-65 0 -135 10v114q74 -13 123 -13q79 0 79 71v477h156z" />
    <glyph glyph-name="afii10058" unicode="&#x409;" horiz-adv-x="1127" 
d="M1082 268v-114q0 -154 -262 -154h-291v538h-240v-397q0 -39 -10.5 -67t-26 -43.5t-42 -24t-50.5 -11t-59 -2.5q-56 0 -81 5v102q18 -5 52 -5q61 0 61 66v488h553v-245h116q39 0 61.5 -0.5t56.5 -3t53.5 -7.5t43 -15t36 -24.5t21 -36t8.5 -49.5zM926 178v61
q0 32 -27.5 42.5t-83.5 10.5h-129v-181h127q61 0 87 17t26 50z" />
    <glyph glyph-name="afii10059" unicode="&#x40a;" horiz-adv-x="1093" 
d="M1048 265v-111q0 -154 -262 -154h-290v290h-270v-290h-156v649h156v-248h270v248h156v-248h116q39 0 61.5 -0.5t56.5 -3t53.5 -7.5t43 -15t36 -24.5t21 -36t8.5 -49.5zM892 178v58q0 32 -27.5 42.5t-83.5 10.5h-129v-178h127q61 0 87 17t26 50z" />
    <glyph glyph-name="afii10060" unicode="&#x40b;" horiz-adv-x="844" 
d="M782 0h-156v218q0 46 -22 63t-91 17q-74 0 -105.5 -15t-31.5 -55v-228h-156v538h-200v111h555v-111h-199v-209q10 46 51 60t142 14q116 0 164.5 -37t48.5 -116v-250z" />
    <glyph glyph-name="afii10061" unicode="&#x40c;" horiz-adv-x="667" 
d="M70 0v649h153v-259q37 0 53 7t30 30l69 114q42 69 76.5 88.5t116.5 19.5h71v-111h-41q-50 0 -64 -7.5t-37 -44.5l-40 -65q-19 -30 -34.5 -43.5t-38.5 -22.5q25 -6 65 -43t82 -100l142 -212h-181l-124 191q-39 60 -66.5 75.5t-78.5 15.5v-282h-153zM458 845l-125 -127
h-124l90 127h159z" />
    <glyph glyph-name="uni040D" unicode="&#x40d;" horiz-adv-x="751" 
d="M238 0h-168v649h149v-453l294 453h168v-649h-149v460zM500 718h-124l-125 127h159z" />
    <glyph glyph-name="afii10062" unicode="&#x40e;" horiz-adv-x="636" 
d="M626 649l-248 -521q-33 -70 -80 -104t-129 -34q-46 0 -100 10v114q43 -13 73 -13q64 0 90 56l27 57l-249 435h159l166 -293l132 293h159zM456 845q-4 -57 -40.5 -92t-97.5 -35q-62 0 -98.5 35t-39.5 92h81q6 -29 18 -42t39 -13q50 0 56 55h82z" />
    <glyph glyph-name="afii10145" unicode="&#x40f;" horiz-adv-x="728" 
d="M442 -165h-156v165h-216v649h156v-538h276v538h156v-649h-216v-165z" />
    <glyph glyph-name="afii10017" unicode="&#x410;" horiz-adv-x="668" 
d="M666 0h-158l-58 171h-237l-57 -171h-154l240 649h190zM416 275l-82 244h-4l-82 -244h168z" />
    <glyph glyph-name="afii10018" unicode="&#x411;" horiz-adv-x="667" 
d="M575 538h-349v-134h116q39 0 61.5 -0.5t56.5 -3t53.5 -7.5t43 -15t36 -24.5t21 -36t8.5 -49.5v-114q0 -154 -262 -154h-290v649h505v-111zM466 178v61q0 32 -27.5 42.5t-83.5 10.5h-129v-181h127q61 0 87 17t26 50z" />
    <glyph glyph-name="afii10019" unicode="&#x412;" horiz-adv-x="635" 
d="M598 245v-100q0 -81 -65 -113t-193 -32h-270v649h263q138 0 187 -31t49 -108v-80q0 -28 -22 -52t-50 -32v-5q36 -4 68.5 -32t32.5 -64zM419 450v32q0 32 -15 44t-74 12h-104v-153h107q55 0 70.5 14t15.5 51zM442 166v52q0 36 -18.5 51t-65.5 15h-132v-173h111q57 0 81 13
t24 42z" />
    <glyph glyph-name="afii10020" unicode="&#x413;" horiz-adv-x="517" 
d="M495 538h-269v-538h-156v649h425v-111z" />
    <glyph glyph-name="afii10021" unicode="&#x414;" horiz-adv-x="710" 
d="M164 649h446v-538h64v-277h-141v166h-370v-166h-141v277h56q47 71 66.5 159t19.5 274v105zM455 538h-140v-50q0 -250 -70 -377h210v427z" />
    <glyph glyph-name="afii10022" unicode="&#x415;" horiz-adv-x="610" 
d="M575 0h-505v649h495v-111h-339v-149h306v-111h-306v-167h349v-111z" />
    <glyph glyph-name="afii10024" unicode="&#x416;" horiz-adv-x="1015" 
d="M581 649v-259q35 0 46.5 6.5t26.5 30.5l69 114q42 69 76.5 88.5t116.5 19.5h71v-111h-41q-50 0 -64 -7.5t-37 -44.5l-40 -65q-19 -30 -34.5 -43.5t-38.5 -22.5q25 -6 65 -43t82 -100l142 -212h-181l-124 191q-40 62 -63 76.5t-72 14.5v-282h-147v282q-49 0 -72 -14.5
t-63 -76.5l-124 -191h-181l142 212q42 63 82 100t65 43q-23 9 -38.5 22.5t-34.5 43.5l-40 65q-23 37 -37 44.5t-64 7.5h-41v111h71q82 0 116.5 -19.5t76.5 -88.5l69 -114q15 -24 26.5 -30.5t46.5 -6.5v259h147z" />
    <glyph glyph-name="afii10025" unicode="&#x417;" horiz-adv-x="601" 
d="M538 251v-107q0 -154 -260 -154q-125 0 -238 18v119q132 -26 219 -26q63 0 93 14.5t30 37.5v75q0 28 -27 38.5t-94 10.5h-138v111h138q53 0 75.5 11t22.5 37v61q0 28 -24.5 39.5t-92.5 11.5q-12 0 -190 -12v114q137 9 206 9q122 0 188 -27.5t66 -99.5v-107
q0 -30 -19.5 -50t-45.5 -27q91 -33 91 -97z" />
    <glyph glyph-name="afii10026" unicode="&#x418;" horiz-adv-x="751" 
d="M238 0h-168v649h149v-453l294 453h168v-649h-149v460z" />
    <glyph glyph-name="afii10027" unicode="&#x419;" horiz-adv-x="751" 
d="M238 0h-168v649h149v-453l294 453h168v-649h-149v460zM513 845q-4 -57 -40.5 -92t-97.5 -35q-62 0 -98.5 35t-39.5 92h81q6 -29 18 -42t39 -13q50 0 56 55h82z" />
    <glyph glyph-name="afii10028" unicode="&#x41a;" horiz-adv-x="667" 
d="M70 0v649h153v-259q37 0 53 7t30 30l69 114q42 69 76.5 88.5t116.5 19.5h71v-111h-41q-50 0 -64 -7.5t-37 -44.5l-40 -65q-19 -30 -34.5 -43.5t-38.5 -22.5q25 -6 65 -43t82 -100l142 -212h-181l-124 191q-39 60 -66.5 75.5t-78.5 15.5v-282h-153z" />
    <glyph glyph-name="afii10029" unicode="&#x41b;" horiz-adv-x="761" 
d="M133 649h558v-649h-156v538h-246v-397q0 -39 -10.5 -67t-26 -43.5t-42 -24t-50.5 -11t-59 -2.5q-56 0 -81 5v102q18 -5 52 -5q61 0 61 66v488z" />
    <glyph glyph-name="afii10030" unicode="&#x41c;" horiz-adv-x="889" 
d="M819 0h-141v480h-3l-164 -480h-125l-169 480h-4v-480h-143v649h222l160 -464l158 464h209v-649z" />
    <glyph glyph-name="afii10031" unicode="&#x41d;" horiz-adv-x="728" 
d="M658 0h-156v278h-276v-278h-156v649h156v-260h276v260h156v-649z" />
    <glyph glyph-name="afii10032" unicode="&#x41e;" horiz-adv-x="728" 
d="M672 462v-284q0 -55 -29 -94t-78 -58.5t-98 -27.5t-104 -8q-52 0 -97.5 6.5t-97 24.5t-82 58t-30.5 99v284q0 50 22.5 88t54 58t76.5 32.5t80 15.5t74 3q40 0 75.5 -3t80.5 -15.5t77 -32.5t54 -57.5t22 -88.5zM516 178v285q0 47 -38.5 66t-113.5 19q-76 0 -114 -18.5
t-38 -66.5v-285q0 -25 13 -41.5t37.5 -23.5t47 -9.5t55.5 -2.5t55.5 2.5t46.5 9.5t36.5 23.5t12.5 41.5z" />
    <glyph glyph-name="afii10033" unicode="&#x41f;" horiz-adv-x="722" 
d="M652 0h-156v538h-270v-538h-156v649h582v-649z" />
    <glyph glyph-name="afii10034" unicode="&#x420;" horiz-adv-x="627" 
d="M587 500v-123q0 -96 -64 -131t-211 -35h-86v-211h-156v649h260q138 0 197.5 -30.5t59.5 -118.5zM436 382v104q0 31 -24 41.5t-89 10.5h-97v-220h99q61 0 86 14.5t25 49.5z" />
    <glyph glyph-name="afii10035" unicode="&#x421;" horiz-adv-x="597" 
d="M567 12q-110 -22 -210 -22q-40 0 -75.5 3.5t-79 15t-74 31t-51.5 55t-21 83.5v285q0 196 301 196q74 0 206 -22v-117q-119 28 -204 28q-34 0 -55.5 -2t-45 -10t-35 -25.5t-11.5 -45.5v-276q0 -88 161 -88q71 0 194 29v-118z" />
    <glyph glyph-name="afii10036" unicode="&#x422;" horiz-adv-x="595" 
d="M575 538h-199v-538h-156v538h-200v111h555v-111z" />
    <glyph glyph-name="afii10037" unicode="&#x423;" horiz-adv-x="636" 
d="M626 649l-248 -521q-33 -70 -80 -104t-129 -34q-46 0 -100 10v114q43 -13 73 -13q64 0 90 56l27 57l-249 435h159l166 -293l132 293h159z" />
    <glyph glyph-name="afii10038" unicode="&#x424;" horiz-adv-x="756" 
d="M452 0h-148v63q-67 0 -122 17t-93.5 60.5t-38.5 107.5v144q0 67 40 112.5t95 63t119 17.5v64h148v-64q64 0 119 -17.5t95 -63t40 -112.5v-144q0 -60 -39 -103.5t-95 -62.5t-120 -19v-63zM550 244v154q0 36 -26.5 58t-71.5 22v-308q43 0 70.5 19.5t27.5 54.5zM206 244
q0 -35 28 -54t70 -19v307q-44 0 -71 -22t-27 -58v-154z" />
    <glyph glyph-name="afii10039" unicode="&#x425;" horiz-adv-x="677" 
d="M668 0h-181l-148 230l-149 -230h-180l239 331l-229 318h180l139 -216l138 216h180l-229 -318z" />
    <glyph glyph-name="afii10040" unicode="&#x426;" horiz-adv-x="728" 
d="M502 -166v166h-432v649h156v-538h276v538h156v-815h-156z" />
    <glyph glyph-name="afii10041" unicode="&#x427;" horiz-adv-x="694" 
d="M62 649h156v-259q0 -46 22 -63t91 -17q74 0 105.5 15t31.5 55v269h156v-649h-156v279q-10 -46 -51 -60t-142 -14q-116 0 -164.5 37t-48.5 116v291z" />
    <glyph glyph-name="afii10042" unicode="&#x428;" horiz-adv-x="1039" 
d="M969 0h-899v649h156v-538h215v538h157v-538h215v538h156v-649z" />
    <glyph glyph-name="afii10043" unicode="&#x429;" horiz-adv-x="1039" 
d="M813 -166v166h-743v649h156v-538h215v538h157v-538h215v538h156v-815h-156z" />
    <glyph glyph-name="afii10044" unicode="&#x42a;" horiz-adv-x="816" 
d="M771 268v-114q0 -154 -262 -154h-290v538h-199v111h356v-245h115q39 0 61.5 -0.5t56.5 -3t53.5 -7.5t43 -15t36 -24.5t21 -36t8.5 -49.5zM615 178v61q0 32 -27.5 42.5t-83.5 10.5h-128v-181h126q61 0 87 17t26 50z" />
    <glyph glyph-name="afii10045" unicode="&#x42b;" horiz-adv-x="941" 
d="M622 268v-114q0 -154 -262 -154h-290v649h156v-245h116q39 0 61.5 -0.5t56.5 -3t53.5 -7.5t43 -15t36 -24.5t21 -36t8.5 -49.5zM466 178v61q0 32 -27.5 42.5t-83.5 10.5h-129v-181h127q61 0 87 17t26 50zM871 0h-156v649h156v-649z" />
    <glyph glyph-name="afii10046" unicode="&#x42c;" horiz-adv-x="667" 
d="M622 268v-114q0 -154 -262 -154h-290v649h156v-245h116q39 0 61.5 -0.5t56.5 -3t53.5 -7.5t43 -15t36 -24.5t21 -36t8.5 -49.5zM466 178v61q0 32 -27.5 42.5t-83.5 10.5h-129v-181h127q61 0 87 17t26 50z" />
    <glyph glyph-name="afii10047" unicode="&#x42d;" horiz-adv-x="597" 
d="M120 278v111h265v76q0 28 -10.5 45.5t-32.5 25.5t-43 10t-54 2q-81 0 -191 -26v117q120 20 206 20q59 0 99.5 -4t77.5 -16t58 -33.5t33.5 -57t12.5 -85.5v-285q0 -48 -21 -83.5t-51.5 -55t-74 -31t-79 -15t-75.5 -3.5q-100 0 -210 22v118q123 -29 194 -29q161 0 161 88
v89h-265z" />
    <glyph glyph-name="afii10048" unicode="&#x42e;" horiz-adv-x="998" 
d="M226 0h-156v649h156v-260h100v73q0 50 22.5 88t54 58t76.5 32.5t80 15.5t74 3q40 0 75.5 -3t80.5 -15.5t77 -32.5t54 -57.5t22 -88.5v-284q0 -55 -29 -94t-78 -58.5t-98 -27.5t-104 -8q-52 0 -97.5 6.5t-97 24.5t-82 58t-30.5 99v100h-100v-278zM786 178v285
q0 47 -38.5 66t-113.5 19q-76 0 -114 -18.5t-38 -66.5v-285q0 -25 13 -41.5t37.5 -23.5t47 -9.5t55.5 -2.5t55.5 2.5t46.5 9.5t36.5 23.5t12.5 41.5z" />
    <glyph glyph-name="afii10049" unicode="&#x42f;" horiz-adv-x="668" 
d="M200 0h-180l188 267q-148 18 -148 120v114q0 77 60.5 112.5t185.5 35.5h292v-649h-156v255h-72zM213 475v-46q0 -42 20 -56.5t75 -14.5h134v180h-134q-52 0 -73.5 -13.5t-21.5 -49.5z" />
    <glyph glyph-name="afii10065" unicode="&#x430;" horiz-adv-x="564" 
d="M500 0h-143v44q-16 -29 -46 -41.5t-110 -12.5q-98 0 -130 30t-32 125q0 86 33 119.5t118 33.5h164v33q0 44 -20.5 58.5t-86.5 14.5q-62 0 -170 -12v92q83 10 185 10q134 0 186 -32.5t52 -128.5v-333zM354 124v94h-100q-48 0 -60 -11t-12 -59q0 -47 12.5 -57t63.5 -10
q25 0 37 0.5t26 2.5t19.5 6.5t9.5 12.5t4 21z" />
    <glyph glyph-name="afii10066" unicode="&#x431;" 
d="M200 512v-87q17 69 155 69q96 0 133 -34.5t37 -104.5v-186q0 -48 -14.5 -82t-35.5 -52.5t-54.5 -29t-62.5 -13t-69 -2.5q-41 0 -70 2.5t-62.5 13t-53.5 29t-34 52.5t-14 82v353q0 51 17.5 87.5t41.5 55.5t62.5 29.5t68 13t69.5 2.5q36 0 180 -10v-107q-124 16 -188 16
t-85 -21t-21 -76zM200 336v-181q0 -48 14.5 -61t76.5 -13t75.5 12.5t13.5 62.5v180q0 40 -14.5 54t-66.5 14q-63 0 -81 -13.5t-18 -54.5z" />
    <glyph glyph-name="afii10067" unicode="&#x432;" horiz-adv-x="581" 
d="M539 157v-29q0 -65 -48 -96.5t-162 -31.5h-265v484h258q64 0 103.5 -7.5t57 -25.5t22.5 -36t5 -49v-17q0 -40 -22 -58t-67 -28v-4q53 -9 85.5 -34.5t32.5 -67.5zM372 345v6q0 15 -5 23t-27 14t-65 6h-65v-99h68q59 0 76.5 11t17.5 39zM395 142v18q0 28 -23 37t-85 9h-77
v-116h72q63 0 88 12.5t25 39.5z" />
    <glyph glyph-name="afii10068" unicode="&#x433;" horiz-adv-x="405" 
d="M389 394h-179v-394h-146v484h325v-90z" />
    <glyph glyph-name="afii10069" unicode="&#x434;" horiz-adv-x="594" 
d="M134 484h380v-394h44v-224h-133v134h-280v-134h-133v224h36q86 131 86 324v70zM370 394h-99v-26q0 -62 -18 -142.5t-49 -135.5h166v304z" />
    <glyph glyph-name="afii10070" unicode="&#x435;" horiz-adv-x="559" 
d="M511 203h-314v-44q0 -41 29 -59.5t109 -18.5q72 0 162 21v-93q-92 -19 -190 -19q-257 0 -257 157v174q0 93 60 133t179 40q112 0 167 -38t55 -135v-118zM372 286v70q0 23 -18.5 35.5t-66.5 12.5q-53 0 -71.5 -12.5t-18.5 -35.5v-70h175z" />
    <glyph glyph-name="afii10072" unicode="&#x436;" horiz-adv-x="808" 
d="M474 484v-194q15 0 22 4t17 21l47 77q41 68 64 80t113 12h48v-90h-16q-37 0 -54.5 -7.5t-33.5 -30.5l-28 -40q-26 -38 -49 -50q48 -20 96 -87l127 -179h-168l-92 135q-32 47 -45 56.5t-48 9.5v-201h-139v201q-35 0 -48.5 -10t-45.5 -56l-92 -135h-168l127 179
q48 67 96 87q-23 12 -49 50l-28 40q-16 23 -33.5 30.5t-54.5 7.5h-16v90h48q90 0 113 -12t64 -80l47 -77q10 -16 17.5 -20.5t22.5 -4.5v194h139z" />
    <glyph glyph-name="afii10073" unicode="&#x437;" horiz-adv-x="533" 
d="M490 173v-46q0 -81 -59.5 -109t-187.5 -28q-101 0 -208 15v102q128 -26 209 -26q59 0 79.5 10t20.5 43v25q0 28 -26.5 39t-81.5 11h-108v91h108q85 0 85 52v4q0 29 -20.5 38.5t-83.5 9.5q-76 0 -172 -12v93q76 9 188 9q132 0 181.5 -24t49.5 -88v-37q0 -31 -18.5 -50.5
t-43.5 -26.5q88 -32 88 -95z" />
    <glyph glyph-name="afii10074" unicode="&#x438;" horiz-adv-x="643" 
d="M231 0h-167v484h135v-341l213 341h167v-484h-135v350z" />
    <glyph glyph-name="afii10075" unicode="&#x439;" horiz-adv-x="643" 
d="M231 0h-167v484h135v-341l213 341h167v-484h-135v350zM459 680q-4 -57 -40.5 -92t-97.5 -35q-62 0 -98.5 35t-39.5 92h81q6 -29 18 -42t39 -13q50 0 56 55h82z" />
    <glyph glyph-name="afii10076" unicode="&#x43a;" horiz-adv-x="554" 
d="M64 0v484h146v-194q22 0 30.5 4t18.5 21l47 77q41 68 64 80t113 12h48v-90h-16q-37 0 -54.5 -7.5t-33.5 -30.5l-28 -40q-26 -38 -49 -50q48 -20 96 -87l127 -179h-168l-92 135q-30 44 -48 55t-55 11v-201h-146z" />
    <glyph glyph-name="afii10077" unicode="&#x43b;" horiz-adv-x="611" 
d="M12 -2v89q18 -5 32 -5q28 0 39.5 17.5t11.5 66.5v318h452v-484h-145v394h-161v-253q0 -40 -8.5 -67.5t-21.5 -43t-36 -24t-45.5 -11t-56.5 -2.5q-36 0 -61 5z" />
    <glyph glyph-name="afii10078" unicode="&#x43c;" horiz-adv-x="735" 
d="M671 0h-133v330h-5l-116 -330h-107l-112 330h-5v-330h-129v484h199l106 -326l113 326h189v-484z" />
    <glyph glyph-name="afii10079" unicode="&#x43d;" horiz-adv-x="617" 
d="M553 0h-146v202h-197v-202h-146v484h146v-187h197v187h146v-484z" />
    <glyph glyph-name="afii10080" unicode="&#x43e;" horiz-adv-x="592" 
d="M542 309v-143q0 -47 -15 -80.5t-37 -52t-57.5 -28.5t-65 -12.5t-71.5 -2.5t-71.5 2.5t-65 12.5t-57.5 28.5t-37 52t-15 80.5v143q0 50 15.5 85.5t38 54.5t58.5 29.5t64.5 13t69.5 2.5t69.5 -2.5t64.5 -13t58.5 -29.5t38 -54.5t15.5 -85.5zM396 149v183q0 39 -20 55.5
t-80 16.5t-80 -16.5t-20 -55.5v-183q0 -38 19.5 -53t80.5 -15t80.5 15t19.5 53z" />
    <glyph glyph-name="afii10081" unicode="&#x43f;" horiz-adv-x="610" 
d="M546 0h-146v394h-190v-394h-146v484h482v-484z" />
    <glyph glyph-name="afii10082" unicode="&#x440;" horiz-adv-x="609" 
d="M559 331v-159q0 -108 -48 -145t-156 -37q-68 0 -101.5 11t-43.5 48v-257h-146v692h138v-48q13 32 51.5 45t112.5 13q62 0 101 -10t59 -32.5t26.5 -49.5t6.5 -71zM413 153v179q0 47 -17.5 59.5t-86.5 12.5q-62 0 -80.5 -16t-18.5 -56v-179q0 -43 18 -57.5t82 -14.5
t83.5 14.5t19.5 57.5z" />
    <glyph glyph-name="afii10083" unicode="&#x441;" horiz-adv-x="482" 
d="M464 7q-88 -17 -164 -17q-37 0 -59 1t-55.5 5.5t-54 15.5t-41 28.5t-30.5 47t-10 69.5v161q0 36 8.5 63.5t21 46t35 31.5t41.5 19.5t49.5 10.5t51 4.5t53.5 0.5q55 0 147 -18v-96q-104 24 -158 24q-101 0 -101 -68v-178q0 -77 111 -77q52 0 155 22v-96z" />
    <glyph glyph-name="afii10084" unicode="&#x442;" horiz-adv-x="505" 
d="M475 394h-149v-394h-146v394h-150v90h445v-90z" />
    <glyph glyph-name="afii10085" unicode="&#x443;" horiz-adv-x="534" 
d="M526 484l-265 -692h-148l88 212l-193 480h159l109 -342l99 342h151z" />
    <glyph glyph-name="afii10086" unicode="&#x444;" horiz-adv-x="907" 
d="M523 -208h-140v255q-16 -25 -27 -35t-37 -16t-74 -6q-123 0 -159 31t-36 138v189q0 82 44 114t144 32q50 0 77.5 -8t38.5 -18.5t29 -37.5v270h140v-250q16 25 49 34.5t97 9.5q62 0 100.5 -10t57 -33t24.5 -49.5t6 -70.5v-159q0 -109 -46 -145.5t-153 -36.5
q-66 0 -95.5 11t-39.5 48v-257zM711 153v179q0 48 -15.5 60t-83.5 12q-57 0 -73 -13.5t-16 -48.5v-189q0 -45 14 -58.5t76 -13.5q64 0 81 14t17 58zM383 145v195q0 26 -4 37t-24.5 19t-64.5 8q-66 0 -80 -12.5t-14 -56.5v-185q0 -41 14 -55t72 -14q48 0 69.5 6.5t26.5 18
t5 39.5z" />
    <glyph glyph-name="afii10087" unicode="&#x445;" horiz-adv-x="568" 
d="M559 0h-169l-106 152l-105 -152h-169l190 248l-180 236h169l95 -139l96 139h169l-181 -236z" />
    <glyph glyph-name="afii10088" unicode="&#x446;" horiz-adv-x="599" 
d="M389 -134v134h-325v484h146v-394h179v394h146v-618h-146z" />
    <glyph glyph-name="afii10089" unicode="&#x447;" horiz-adv-x="595" 
d="M54 483h151v-162q0 -55 12 -67.5t66 -12.5q64 0 80.5 11.5t16.5 58.5v172h151v-483h-151v213q-16 -73 -138 -73q-78 0 -120 18.5t-55 49t-13 85.5v190z" />
    <glyph glyph-name="afii10090" unicode="&#x448;" horiz-adv-x="832" 
d="M343 484h146v-394h133v394h146v-484h-704v484h146v-394h133v394z" />
    <glyph glyph-name="afii10091" unicode="&#x449;" horiz-adv-x="832" 
d="M343 484h146v-394h133v394h146v-618h-146v134h-558v484h146v-394h133v394z" />
    <glyph glyph-name="afii10092" unicode="&#x44a;" horiz-adv-x="505" 
d="M658 180v-51q0 -71 -60.5 -100t-176.5 -29h-241v394h-150v90h445v-90h-149v-78h92q147 0 193.5 -26t46.5 -110zM507 150v21q0 33 -19.5 43t-71.5 10h-90v-133h88q60 0 76.5 12.5t16.5 46.5z" />
    <glyph glyph-name="afii10093" unicode="&#x44b;" horiz-adv-x="830" 
d="M542 181v-52q0 -71 -60.5 -100t-176.5 -29h-241v484h146v-167h92q147 0 193.5 -26t46.5 -110zM391 150v22q0 33 -19.5 43t-71.5 10h-90v-134h88q60 0 76.5 12.5t16.5 46.5zM766 0h-146v484h146v-484z" />
    <glyph glyph-name="afii10094" unicode="&#x44c;" horiz-adv-x="582" 
d="M542 181v-52q0 -71 -60.5 -100t-176.5 -29h-241v484h146v-167h92q147 0 193.5 -26t46.5 -110zM391 150v22q0 33 -19.5 43t-71.5 10h-90v-134h88q60 0 76.5 12.5t16.5 46.5z" />
    <glyph glyph-name="afii10095" unicode="&#x44d;" horiz-adv-x="509" 
d="M30 7v96q103 -22 179 -22q60 0 81 12.5t21 48.5v59h-232v91h232v52q0 36 -18.5 48t-73.5 12q-78 0 -182 -24v96q92 18 193 18q32 0 51.5 -0.5t46.5 -4.5t43.5 -10.5t35 -19.5t28.5 -31.5t17 -46t7 -63.5v-161q0 -34 -8 -60.5t-19.5 -44t-32 -30t-38 -18.5t-46.5 -9.5
t-47.5 -4t-49.5 -0.5q-100 0 -188 17z" />
    <glyph glyph-name="afii10096" unicode="&#x44e;" horiz-adv-x="853" 
d="M210 0h-146v484h146v-187h101v12q0 50 15.5 85.5t38 54.5t58.5 29.5t64.5 13t69.5 2.5t69.5 -2.5t64.5 -13t58.5 -29.5t38 -54.5t15.5 -85.5v-143q0 -47 -15 -80.5t-37 -52t-57.5 -28.5t-65 -12.5t-71.5 -2.5t-71.5 2.5t-65 12.5t-57.5 28.5t-37 52t-15 80.5v36h-101
v-202zM657 149v183q0 39 -20 55.5t-80 16.5t-80 -16.5t-20 -55.5v-183q0 -38 19.5 -53t80.5 -15t80.5 15t19.5 53z" />
    <glyph glyph-name="afii10097" unicode="&#x44f;" horiz-adv-x="581" 
d="M179 0h-174l168 196q-63 6 -95.5 28t-32.5 79v52q0 72 47 100.5t155 28.5h270v-484h-144v174h-60zM191 345v-35q0 -20 14 -30.5t28.5 -12t42.5 -1.5h97v128h-86q-51 0 -73.5 -10.5t-22.5 -38.5z" />
    <glyph glyph-name="uni0450" unicode="&#x450;" horiz-adv-x="559" 
d="M511 203h-314v-44q0 -41 29 -59.5t109 -18.5q72 0 162 21v-93q-92 -19 -190 -19q-257 0 -257 157v174q0 93 60 133t179 40q112 0 167 -38t55 -135v-118zM372 286v70q0 23 -18.5 35.5t-66.5 12.5q-53 0 -71.5 -12.5t-18.5 -35.5v-70h175zM404 553h-124l-125 127h159z" />
    <glyph glyph-name="afii10071" unicode="&#x451;" horiz-adv-x="559" 
d="M511 203h-314v-44q0 -41 29 -59.5t109 -18.5q72 0 162 21v-93q-92 -19 -190 -19q-257 0 -257 157v174q0 93 60 133t179 40q112 0 167 -38t55 -135v-118zM372 286v70q0 23 -18.5 35.5t-66.5 12.5q-53 0 -71.5 -12.5t-18.5 -35.5v-70h175zM437 565h-126v118h126v-118z
M247 565h-126v118h126v-118z" />
    <glyph glyph-name="afii10099" unicode="&#x452;" horiz-adv-x="595" 
d="M363 494q103 0 150 -47.5t47 -142.5q0 -60 -29.5 -156.5t-55.5 -147.5h-151q90 201 90 281q0 75 -22 99t-85 24t-80 -12.5t-17 -53.5v-338h-146v553h-45v87h45v60h146v-60h148v-87h-148v-128q14 69 153 69z" />
    <glyph glyph-name="afii10100" unicode="&#x453;" horiz-adv-x="405" 
d="M389 394h-179v-394h-146v484h325v-90zM376 680l-125 -127h-124l90 127h159z" />
    <glyph glyph-name="afii10101" unicode="&#x454;" horiz-adv-x="482" 
d="M464 7q-88 -17 -164 -17q-37 0 -59 1t-55.5 5.5t-54 15.5t-41 28.5t-30.5 47t-10 69.5v161q0 36 8.5 63.5t21 46t35 31.5t41.5 19.5t49.5 10.5t51 4.5t53.5 0.5q55 0 147 -18v-96q-104 24 -158 24q-101 0 -101 -68v-44h222v-91h-222v-43q0 -77 111 -77q52 0 155 22v-96z
" />
    <glyph glyph-name="afii10102" unicode="&#x455;" horiz-adv-x="525" 
d="M481 189v-61q0 -36 -13.5 -62t-34 -40.5t-53.5 -22.5t-63.5 -10.5t-71.5 -2.5q-79 0 -191 15v97q139 -21 193 -21q43 0 66.5 8.5t23.5 33.5v30q0 23 -13 34.5t-56 11.5h-63q-76 0 -118.5 30.5t-42.5 89.5v59q0 66 63 91t178 25q48 0 172 -9v-93q-156 12 -176 12
q-61 0 -77 -8.5t-16 -32.5v-26q0 -12 12.5 -22t38.5 -10h64q178 0 178 -116z" />
    <glyph glyph-name="afii10103" unicode="&#x456;" horiz-adv-x="282" 
d="M214 541h-146v118h146v-118zM214 0h-146v484h146v-484z" />
    <glyph glyph-name="afii10104" unicode="&#x457;" horiz-adv-x="282" 
d="M214 0h-146v484h146v-484zM360 565h-126v118h126v-118zM50 565h-126v118h126v-118zM176 538h-66l-39 172h144z" />
    <glyph glyph-name="afii10105" unicode="&#x458;" horiz-adv-x="274" 
d="M210 484v-557q0 -86 -51.5 -116.5t-149.5 -30.5q-13 0 -47 2v95q6 -1 18 -1q54 0 69 14t15 70v524h146zM210 541h-146v118h146v-118z" />
    <glyph glyph-name="afii10106" unicode="&#x459;" horiz-adv-x="913" 
d="M873 181v-52q0 -71 -60.5 -100t-176.5 -29h-241v394h-154v-253q0 -40 -8.5 -67.5t-21.5 -43t-36 -24t-45.5 -11t-56.5 -2.5q-36 0 -61 5v89q18 -5 32 -5q28 0 39.5 17.5t11.5 66.5v318h446v-167h92q147 0 193.5 -26t46.5 -110zM722 150v22q0 33 -19.5 43t-71.5 10h-90
v-134h88q60 0 76.5 12.5t16.5 46.5z" />
    <glyph glyph-name="afii10107" unicode="&#x45a;" horiz-adv-x="919" 
d="M879 179v-50q0 -71 -60.5 -100t-176.5 -29h-241v220h-191v-220h-146v484h146v-169h191v169h146v-169h92q147 0 193.5 -26t46.5 -110zM728 150v20q0 33 -19.5 43t-71.5 10h-90v-132h88q60 0 76.5 12.5t16.5 46.5z" />
    <glyph glyph-name="afii10108" unicode="&#x45b;" horiz-adv-x="595" 
d="M19 553v87h45v60h146v-60h148v-87h-148v-128q14 69 153 69q96 0 132 -34.5t36 -104.5v-355h-146v338q0 40 -13.5 53t-64.5 13q-63 0 -80 -12.5t-17 -53.5v-338h-146v553h-45z" />
    <glyph glyph-name="afii10109" unicode="&#x45c;" horiz-adv-x="554" 
d="M64 0v484h146v-194q22 0 30.5 4t18.5 21l47 77q41 68 64 80t113 12h48v-90h-16q-37 0 -54.5 -7.5t-33.5 -30.5l-28 -40q-26 -38 -49 -50q48 -20 96 -87l127 -179h-168l-92 135q-30 44 -48 55t-55 11v-201h-146zM401 680l-125 -127h-124l90 127h159z" />
    <glyph glyph-name="uni045D" unicode="&#x45d;" horiz-adv-x="643" 
d="M231 0h-167v484h135v-341l213 341h167v-484h-135v350zM446 553h-124l-125 127h159z" />
    <glyph glyph-name="afii10110" unicode="&#x45e;" horiz-adv-x="534" 
d="M526 484l-265 -692h-148l88 212l-193 480h159l109 -342l99 342h151zM405 680q-4 -57 -40.5 -92t-97.5 -35q-62 0 -98.5 35t-39.5 92h81q6 -29 18 -42t39 -13q50 0 56 55h82z" />
    <glyph glyph-name="afii10193" unicode="&#x45f;" horiz-adv-x="599" 
d="M228 -134v134h-164v484h146v-394h179v394h146v-484h-161v-134h-146z" />
    <glyph glyph-name="uni0462" unicode="&#x462;" horiz-adv-x="797" 
d="M535 472h-179v-68h116q39 0 61.5 -0.5t56.5 -3t53.5 -7.5t43 -15t36 -24.5t21 -36t8.5 -49.5v-114q0 -154 -262 -154h-290v472h-180v103h180v74h156v-74h179v-103zM596 178v61q0 32 -27.5 42.5t-83.5 10.5h-129v-181h127q61 0 87 17t26 50z" />
    <glyph glyph-name="uni0463" unicode="&#x463;" horiz-adv-x="698" 
d="M475 394h-149v-77h92q147 0 193.5 -26t46.5 -110v-52q0 -71 -60.5 -100t-176.5 -29h-241v394h-150v90h150v216h146v-216h149v-90zM507 150v22q0 33 -19.5 43t-71.5 10h-90v-134h88q60 0 76.5 12.5t16.5 46.5z" />
    <glyph glyph-name="uni0472" unicode="&#x472;" horiz-adv-x="728" 
d="M672 462v-284q0 -55 -29 -94t-78 -58.5t-98 -27.5t-104 -8q-52 0 -97.5 6.5t-97 24.5t-82 58t-30.5 99v284q0 50 22.5 88t54 58t76.5 32.5t80 15.5t74 3q40 0 75.5 -3t80.5 -15.5t77 -32.5t54 -57.5t22 -88.5zM516 178v112q-28 -23 -64 -23q-19 0 -83.5 20t-75.5 20
q-43 0 -81 -25v-104q0 -25 13 -41.5t37.5 -23.5t47 -9.5t55.5 -2.5t55.5 2.5t46.5 9.5t36.5 23.5t12.5 41.5zM212 463v-84q36 24 81 24q11 0 76 -19.5t83 -19.5q39 0 64 24v75q0 47 -38.5 66t-113.5 19q-76 0 -114 -18.5t-38 -66.5z" />
    <glyph glyph-name="uni0473" unicode="&#x473;" horiz-adv-x="592" 
d="M542 309v-143q0 -47 -15 -80.5t-37 -52t-57.5 -28.5t-65 -12.5t-71.5 -2.5t-71.5 2.5t-65 12.5t-57.5 28.5t-37 52t-15 80.5v143q0 50 15.5 85.5t38 54.5t58.5 29.5t64.5 13t69.5 2.5t69.5 -2.5t64.5 -13t58.5 -29.5t38 -54.5t15.5 -85.5zM396 149v59q-18 -15 -41 -15
q-13 0 -57 16.5t-52 16.5q-26 0 -50 -16v-61q0 -38 19.5 -53t80.5 -15t80.5 15t19.5 53zM196 332v-41q22 15 50 15q8 0 52.5 -16t56.5 -16q24 0 41 16v42q0 39 -20 55.5t-80 16.5t-80 -16.5t-20 -55.5z" />
    <glyph glyph-name="uni0474" unicode="&#x474;" horiz-adv-x="769" 
d="M604 487l-180 -487h-191l-233 649h158l174 -519h4l147 438q16 47 47.5 69t85.5 22q53 0 90 -16.5t86 -51.5l-57 -86q-47 32 -74 32q-37 0 -57 -50z" />
    <glyph glyph-name="uni0475" unicode="&#x475;" horiz-adv-x="615" 
d="M454 332l-122 -332h-148l-184 484h155l106 -335l77 254q27 91 133 91q84 0 167 -68l-53 -76q-47 32 -74 32q-39 0 -57 -50z" />
    <glyph glyph-name="uni048A" unicode="&#x48a;" horiz-adv-x="751" 
d="M238 0h-168v649h149v-453l294 453h168v-538h64l-100 -277h-141l60 166h-32v460zM513 845q-4 -57 -40.5 -92t-97.5 -35q-62 0 -98.5 35t-39.5 92h81q6 -29 18 -42t39 -13q50 0 56 55h82z" />
    <glyph glyph-name="uni048B" unicode="&#x48b;" horiz-adv-x="643" 
d="M231 0h-167v484h135v-341l213 341h167v-373h64l-100 -245h-141l54 134h-12v350zM459 680q-4 -57 -40.5 -92t-97.5 -35q-62 0 -98.5 35t-39.5 92h81q6 -29 18 -42t39 -13q50 0 56 55h82z" />
    <glyph glyph-name="uni048C" unicode="&#x48c;" horiz-adv-x="667" 
d="M10 475v101h60v73h156v-73h100v-101h-100v-71h116q39 0 61.5 -0.5t56.5 -3t53.5 -7.5t43 -15t36 -24.5t21 -36t8.5 -49.5v-114q0 -154 -262 -154h-290v475h-60zM466 178v61q0 32 -27.5 42.5t-83.5 10.5h-129v-181h127q61 0 87 17t26 50z" />
    <glyph glyph-name="uni048D" unicode="&#x48d;" horiz-adv-x="582" 
d="M10 475v101h54v124h146v-124h116v-101h-116v-158h92q147 0 193.5 -26t46.5 -110v-52q0 -71 -60.5 -100t-176.5 -29h-241v475h-54zM391 150v22q0 33 -19.5 43t-71.5 10h-90v-134h88q60 0 76.5 12.5t16.5 46.5z" />
    <glyph glyph-name="uni048E" unicode="&#x48e;" horiz-adv-x="627" 
d="M550 137l-87 86q-53 -12 -151 -12h-86v-211h-156v649h260q138 0 197.5 -30.5t59.5 -118.5v-123q0 -90 -58 -127l67 -67zM436 382v104q0 31 -24 41.5t-89 10.5h-97v-220h99q30 0 42 2l-47 47l47 47l62 -63q7 11 7 31z" />
    <glyph glyph-name="uni048F" unicode="&#x48f;" horiz-adv-x="609" 
d="M559 331v-159q0 -112 -57 -152l50 -50l-46 -46l-72 72q-34 -6 -79 -6q-68 0 -101.5 11t-43.5 48v-257h-146v692h138v-48q13 32 51.5 45t112.5 13q62 0 101 -10t59 -32.5t26.5 -49.5t6.5 -71zM413 153v179q0 47 -17.5 59.5t-86.5 12.5q-62 0 -80.5 -16t-18.5 -56v-179
q0 -43 18 -57.5t82 -14.5q27 0 37 1l-71 72l47 47l85 -86q5 13 5 38z" />
    <glyph glyph-name="afii10050" unicode="&#x490;" horiz-adv-x="517" 
d="M495 538h-269v-538h-156v649h304v140h121v-251z" />
    <glyph glyph-name="afii10098" unicode="&#x491;" horiz-adv-x="405" 
d="M389 394h-179v-394h-146v484h210v121h115v-211z" />
    <glyph glyph-name="uni0492" unicode="&#x492;" horiz-adv-x="517" 
d="M13 278v111h57v260h425v-111h-269v-149h164v-111h-164v-278h-156v278h-57z" />
    <glyph glyph-name="uni0493" unicode="&#x493;" horiz-adv-x="405" 
d="M19 202v95h45v187h325v-90h-179v-97h112v-95h-112v-202h-146v202h-45z" />
    <glyph glyph-name="uni0494" unicode="&#x494;" horiz-adv-x="678" 
d="M546 538h-320v-169q41 25 123 25q138 0 217.5 -77.5t79.5 -208.5q0 -162 -83.5 -245t-226.5 -83q-98 0 -167 43.5t-79 114.5h115q12 -24 46 -40t82 -16q162 0 162 213q0 89 -49.5 138t-132.5 49q-50 0 -87 -20v-262h-156v649h476v-111z" />
    <glyph glyph-name="uni0495" unicode="&#x495;" horiz-adv-x="581" 
d="M210 182v-182h-146v484h396v-90h-250v-119q33 20 95 20q236 0 236 -246q0 -129 -70.5 -199t-185.5 -70q-95 0 -152 44t-65 118h122q11 -34 32 -49.5t63 -15.5q50 0 79.5 45t29.5 119q0 78 -31 118t-100 40q-31 0 -53 -17z" />
    <glyph glyph-name="uni0496" unicode="&#x496;" horiz-adv-x="1015" 
d="M879 212l67 -101h76v-277h-141v166h-41l-124 191q-40 62 -63 76.5t-72 14.5v-282h-147v282q-49 0 -72 -14.5t-63 -76.5l-124 -191h-181l142 212q42 63 82 100t65 43q-23 9 -38.5 22.5t-34.5 43.5l-40 65q-23 37 -37 44.5t-64 7.5h-41v111h71q82 0 116.5 -19.5t76.5 -88.5
l69 -114q15 -24 26.5 -30.5t46.5 -6.5v259h147v-259q35 0 46.5 6.5t26.5 30.5l69 114q42 69 76.5 88.5t116.5 19.5h71v-111h-41q-50 0 -64 -7.5t-37 -44.5l-40 -65q-19 -30 -34.5 -43.5t-38.5 -22.5q25 -6 65 -43t82 -100z" />
    <glyph glyph-name="uni0497" unicode="&#x497;" horiz-adv-x="808" 
d="M696 -134v134h-37l-92 135q-32 47 -45 56.5t-48 9.5v-201h-139v201q-35 0 -48.5 -10t-45.5 -56l-92 -135h-168l127 179q48 67 96 87q-23 12 -49 50l-28 40q-16 23 -33.5 30.5t-54.5 7.5h-16v90h48q90 0 113 -12t64 -80l47 -77q10 -16 17.5 -20.5t22.5 -4.5v194h139v-194
q15 0 22 4t17 21l47 77q41 68 64 80t113 12h48v-90h-16q-37 0 -54.5 -7.5t-33.5 -30.5l-28 -40q-26 -38 -49 -50q48 -20 96 -87l63 -88h62v-225h-129z" />
    <glyph glyph-name="uni0498" unicode="&#x498;" horiz-adv-x="601" 
d="M281 -220q-59 0 -80 10v67q18 -6 40 -6t35 14.5t13 31.5q0 29 -44 94q-104 2 -205 17v119q132 -26 219 -26q63 0 93 14.5t30 37.5v75q0 28 -27 38.5t-94 10.5h-138v111h138q53 0 75.5 11t22.5 37v61q0 28 -24.5 39.5t-92.5 11.5q-12 0 -190 -12v114q137 9 206 9
q122 0 188 -27.5t66 -99.5v-107q0 -30 -19.5 -50t-45.5 -27q91 -33 91 -97v-107q0 -136 -199 -151q51 -82 51 -119q0 -44 -30.5 -69t-78.5 -25z" />
    <glyph glyph-name="uni0499" unicode="&#x499;" horiz-adv-x="533" 
d="M251 -220q-59 0 -80 10v67q18 -6 40 -6t35 14.5t13 31.5q0 30 -44 93q-83 2 -180 15v102q128 -26 209 -26q59 0 79.5 10t20.5 43v25q0 28 -26.5 39t-81.5 11h-108v91h108q85 0 85 52v4q0 29 -20.5 38.5t-83.5 9.5q-76 0 -172 -12v93q76 9 188 9q132 0 181.5 -24t49.5 -88
v-37q0 -31 -18.5 -50.5t-43.5 -26.5q88 -32 88 -95v-46q0 -70 -44.5 -99.5t-136.5 -35.5q51 -78 51 -118q0 -44 -30.5 -69t-78.5 -25z" />
    <glyph glyph-name="uni049A" unicode="&#x49a;" horiz-adv-x="667" 
d="M533 -166v166h-41l-124 191q-39 60 -66.5 75.5t-78.5 15.5v-282h-153v649h153v-259q37 0 53 7t30 30l69 114q42 69 76.5 88.5t116.5 19.5h71v-111h-41q-50 0 -64 -7.5t-37 -44.5l-40 -65q-19 -30 -34.5 -43.5t-38.5 -22.5q25 -6 65 -43t82 -100l67 -101h76v-277h-141z
" />
    <glyph glyph-name="uni049B" unicode="&#x49b;" horiz-adv-x="554" 
d="M439 -134v134h-34l-92 135q-30 44 -48 55t-55 11v-201h-146v484h146v-194q22 0 30.5 4t18.5 21l47 77q41 68 64 80t113 12h48v-90h-16q-37 0 -54.5 -7.5t-33.5 -30.5l-28 -40q-26 -38 -49 -50q50 -20 96 -87l62 -88h60v-225h-129z" />
    <glyph glyph-name="uni049C" unicode="&#x49c;" horiz-adv-x="667" 
d="M252 159v122q-4 0 -14 0.5t-15 0.5v-282h-153v649h153v-259q20 0 29 1v172h87v-98l46 76q42 69 76.5 88.5t116.5 19.5h61v-111h-41q-50 0 -64 -7.5t-37 -44.5l-40 -65q-19 -30 -34.5 -43.5t-38.5 -22.5q25 -6 65 -43t82 -100l142 -212h-181l-124 191q-24 35 -29 41v-73
h-87z" />
    <glyph glyph-name="uni049D" unicode="&#x49d;" horiz-adv-x="554" 
d="M235 97v103q-8 1 -25 1v-201h-146v484h146v-194q18 0 25 1v148h54v-91l27 44q41 68 64 80t113 12h38v-90h-16q-37 0 -54.5 -7.5t-33.5 -30.5l-28 -40q-26 -38 -49 -50q48 -20 96 -87l127 -179h-168l-92 135q-15 22 -24 32v-70h-54z" />
    <glyph glyph-name="uni049E" unicode="&#x49e;" horiz-adv-x="667" 
d="M283 471h-60v-81q37 0 53 7t30 30l69 114q42 69 76.5 88.5t116.5 19.5h71v-111h-41q-50 0 -64 -7.5t-37 -44.5l-40 -65q-19 -30 -34.5 -43.5t-38.5 -22.5q25 -6 65 -43t82 -100l142 -212h-181l-124 191q-39 60 -66.5 75.5t-78.5 15.5v-282h-153v471h-51v87h51v91h153v-91
h60v-87z" />
    <glyph glyph-name="uni049F" unicode="&#x49f;" horiz-adv-x="554" 
d="M253 343h-43v-53q22 0 30.5 4t18.5 21l47 77q41 68 64 80t113 12h48v-90h-16q-37 0 -54.5 -7.5t-33.5 -30.5l-28 -40q-26 -38 -49 -50q48 -20 96 -87l127 -179h-168l-92 135q-30 44 -48 55t-55 11v-201h-146v343h-45v84h45v57h146v-57h43v-84z" />
    <glyph glyph-name="uni04A0" unicode="&#x4a0;" horiz-adv-x="819" 
d="M220 0v538h-200v111h356v-259q36 0 52 7t30 30l69 114q42 69 76.5 88.5t116.5 19.5h71v-111h-41q-50 0 -64 -7.5t-37 -44.5l-40 -65q-19 -30 -34.5 -43.5t-38.5 -22.5q25 -6 65 -43t82 -100l142 -212h-181l-124 191q-39 60 -66.5 75.5t-77.5 15.5v-282h-156z" />
    <glyph glyph-name="uni04A1" unicode="&#x4a1;" horiz-adv-x="670" 
d="M180 0v394h-150v90h296v-194q22 0 30.5 4t18.5 21l47 77q41 68 64 80t113 12h48v-90h-16q-37 0 -54.5 -7.5t-33.5 -30.5l-28 -40q-26 -38 -49 -50q48 -20 96 -87l127 -179h-168l-92 135q-30 44 -48 55t-55 11v-201h-146z" />
    <glyph glyph-name="uni04A2" unicode="&#x4a2;" horiz-adv-x="728" 
d="M581 -166v166h-79v278h-276v-278h-156v649h156v-260h276v260h156v-538h64v-277h-141z" />
    <glyph glyph-name="uni04A3" unicode="&#x4a3;" horiz-adv-x="617" 
d="M489 -134v134h-82v202h-197v-202h-146v484h146v-187h197v187h147v-373h64v-245h-129z" />
    <glyph glyph-name="uni04A4" unicode="&#x4a4;" horiz-adv-x="877" 
d="M857 538h-199v-538h-156v278h-276v-278h-156v649h156v-260h276v260h355v-111z" />
    <glyph glyph-name="uni04A5" unicode="&#x4a5;" horiz-adv-x="733" 
d="M703 394h-149v-394h-147v202h-197v-202h-146v484h146v-187h197v187h296v-90z" />
    <glyph glyph-name="uni04A6" unicode="&#x4a6;" horiz-adv-x="1104" 
d="M652 649v-280q41 25 123 25q138 0 217.5 -77.5t79.5 -208.5q0 -162 -83.5 -245t-226.5 -83q-98 0 -167 43.5t-79 114.5h115q12 -24 46 -40t82 -16q162 0 162 213q0 89 -49.5 138t-132.5 49q-50 0 -87 -20v-262h-156v538h-270v-538h-156v649h582z" />
    <glyph glyph-name="uni04A7" unicode="&#x4a7;" horiz-adv-x="917" 
d="M546 182v-182h-146v394h-190v-394h-146v484h482v-209q33 20 95 20q236 0 236 -246q0 -129 -70.5 -199t-185.5 -70q-95 0 -152 44t-65 118h122q11 -34 32 -49.5t63 -15.5q50 0 79.5 45t29.5 119q0 78 -31 118t-100 40q-31 0 -53 -17z" />
    <glyph glyph-name="uni04A8" unicode="&#x4a8;" horiz-adv-x="700" 
d="M677 18v-108q-164 11 -247 82q-16 -2 -57 -2q-155 0 -245 93.5t-90 245.5q0 145 94.5 238.5t242.5 93.5q108 0 199 -72l-80 -80q-58 55 -121 55q-81 0 -130 -62.5t-49 -171.5q0 -103 41 -166h-1q47 -66 120 -76q-36 76 -36 169q0 109 44 163.5t141 54.5q174 0 174 -213
q0 -141 -114 -219q62 -25 114 -25zM546 261q0 117 -43 117q-51 0 -51 -121q0 -83 29 -139q65 44 65 143z" />
    <glyph glyph-name="uni04A9" unicode="&#x4a9;" horiz-adv-x="490" 
d="M462 13v-105q-125 53 -163 87q-13 -2 -43 -2q-109 0 -169.5 67.5t-60.5 181.5q0 115 60 184t170 69q77 0 150 -53l-82 -68q-36 33 -64 33q-104 0 -104 -162q0 -64 25.5 -111t61.5 -59q-42 72 -42 143q0 60 32 95.5t92 35.5q137 0 137 -136q0 -102 -58 -166q28 -21 58 -34
zM350 194q0 69 -25 69q-21 0 -21 -68q0 -38 24 -102q22 55 22 101z" />
    <glyph glyph-name="uni04AA" unicode="&#x4aa;" horiz-adv-x="597" 
d="M331 -220q-59 0 -80 10v67q18 -6 40 -6t35 14.5t13 31.5q0 7 -2.5 16t-5 15.5t-8.5 18t-9 15.5t-11 16.5t-9 14.5q-46 3 -84 13t-75 30t-58 56t-21 86v285q0 196 301 196q74 0 206 -22v-117q-119 28 -204 28q-34 0 -55.5 -2t-45 -10t-35 -25.5t-11.5 -45.5v-276
q0 -88 161 -88q71 0 194 29v-118q-101 -20 -177 -22q50 -76 50 -116q0 -44 -30.5 -69t-78.5 -25z" />
    <glyph glyph-name="uni04AB" unicode="&#x4ab;" horiz-adv-x="482" 
d="M464 7q-65 -13 -134 -16q50 -80 50 -117q0 -44 -30.5 -69t-78.5 -25q-59 0 -80 10v67q18 -6 40 -6t35 14.5t13 31.5q0 28 -44 94q-40 3 -69.5 10.5t-57.5 24.5t-43 50t-15 81v161q0 36 8.5 63.5t21 46t35 31.5t41.5 19.5t49.5 10.5t51 4.5t53.5 0.5q55 0 147 -18v-96
q-104 24 -158 24q-101 0 -101 -68v-178q0 -77 111 -77q52 0 155 22v-96z" />
    <glyph glyph-name="uni04AC" unicode="&#x4ac;" horiz-adv-x="595" 
d="M298 -166v166h-78v538h-200v111h555v-111h-199v-427h63v-277h-141z" />
    <glyph glyph-name="uni04AD" unicode="&#x4ad;" horiz-adv-x="505" 
d="M261 -134v134h-81v394h-150v90h445v-90h-149v-303h64v-225h-129z" />
    <glyph glyph-name="uni04AE" unicode="&#x4ae;" horiz-adv-x="644" 
d="M636 649l-237 -387v-262h-156v260l-235 389h173l141 -254l139 254h175z" />
    <glyph glyph-name="uni04AF" unicode="&#x4af;" horiz-adv-x="510" 
d="M331 -208h-146v206l-185 486h155l106 -335l102 335h147l-179 -485v-207z" />
    <glyph glyph-name="uni04B0" unicode="&#x4b0;" horiz-adv-x="644" 
d="M100 173v114h126l-218 362h173l141 -254l139 254h175l-222 -362h122v-114h-137v-173h-156v173h-143z" />
    <glyph glyph-name="uni04B1" unicode="&#x4b1;" horiz-adv-x="510" 
d="M30 0v90h120l-150 394h155l106 -335l102 335h147l-146 -394h116v-90h-149v-1v-207h-146v206l-1 2h-154z" />
    <glyph glyph-name="uni04B2" unicode="&#x4b2;" horiz-adv-x="677" 
d="M546 -166v166h-59l-148 230l-149 -230h-180l239 331l-229 318h180l139 -216l138 216h180l-229 -318l159 -220h100v-277h-141z" />
    <glyph glyph-name="uni04B3" unicode="&#x4b3;" horiz-adv-x="568" 
d="M439 -134v134h-49l-106 152l-105 -152h-169l190 248l-180 236h169l95 -139l96 139h169l-181 -236l121 -157h79v-225h-129z" />
    <glyph glyph-name="uni04B4" unicode="&#x4b4;" horiz-adv-x="858" 
d="M535 538h-179v-427h276v538h156v-815h-156v166h-432v538h-180v111h515v-111z" />
    <glyph glyph-name="uni04B5" unicode="&#x4b5;" horiz-adv-x="695" 
d="M425 394h-119v-304h179v394h146v-618h-146v134h-325v394h-130v90h395v-90z" />
    <glyph glyph-name="uni04B6" unicode="&#x4b6;" horiz-adv-x="694" 
d="M547 -166v166h-79v279q-10 -46 -51 -60t-142 -14q-116 0 -164.5 37t-48.5 116v291h156v-259q0 -46 22 -63t91 -17q74 0 105.5 15t31.5 55v269h156v-538h64v-277h-141z" />
    <glyph glyph-name="uni04B7" unicode="&#x4b7;" horiz-adv-x="595" 
d="M466 -134v134h-86v213q-16 -73 -138 -73q-78 0 -120 18.5t-55 49t-13 85.5v190h151v-162q0 -55 12 -67.5t66 -12.5q64 0 80.5 11.5t16.5 58.5v172h151v-392h64v-225h-129z" />
    <glyph glyph-name="uni04B8" unicode="&#x4b8;" horiz-adv-x="694" 
d="M310 107v98h-35q-116 0 -164.5 37t-48.5 116v291h156v-259q0 -43 18.5 -60.5t73.5 -19.5v115h64v-114q49 4 71.5 19.5t22.5 49.5v269h156v-649h-156v279q-7 -33 -29 -49t-65 -21v-102h-64z" />
    <glyph glyph-name="uni04B9" unicode="&#x4b9;" horiz-adv-x="595" 
d="M260 49v91h-18q-78 0 -120 18.5t-55 49t-13 85.5v190h151v-162q0 -50 9 -64.5t46 -15.5v126h54v-126q41 2 53.5 15.5t12.5 54.5v172h151v-483h-151v213q-12 -49 -66 -65v-99h-54z" />
    <glyph glyph-name="uni04BA" unicode="&#x4ba;" horiz-adv-x="694" 
d="M632 0h-156v218q0 46 -22 63t-91 17q-74 0 -105.5 -15t-31.5 -55v-228h-156v649h156v-320q10 46 51 60t142 14q116 0 164.5 -37t48.5 -116v-250z" />
    <glyph glyph-name="uni04BB" unicode="&#x4bb;" horiz-adv-x="595" 
d="M531 0h-146v338q0 40 -13.5 53t-64.5 13q-63 0 -80 -12.5t-17 -53.5v-338h-146v700h146v-275q14 69 153 69q96 0 132 -34.5t36 -104.5v-355z" />
    <glyph glyph-name="uni04BC" unicode="&#x4bc;" horiz-adv-x="855" 
d="M183 198v92h-49q-81 0 -113.5 33.5t-32.5 110.5q0 29 9 65l106 -16q-6 -19 -6 -39q0 -27 13.5 -38.5t45.5 -11.5h27v68q0 50 22.5 88t54 58t76.5 32.5t80 15.5t74 3q40 0 75.5 -3t80.5 -15.5t77 -32.5t54 -57.5t22 -88.5v-175h-460v-78q0 -53 52 -80.5t149 -27.5
q111 0 234 29v-118q-110 -22 -250 -22q-62 0 -110.5 5.5t-93 19.5t-74 37.5t-46.5 60t-17 85.5zM339 463v-74h304v74q0 47 -38.5 66t-113.5 19q-76 0 -114 -18.5t-38 -66.5z" />
    <glyph glyph-name="uni04BD" unicode="&#x4bd;" horiz-adv-x="653" 
d="M605 203h-314v-44q0 -41 29 -59.5t109 -18.5q72 0 162 21v-93q-92 -19 -190 -19q-257 0 -257 157v56h-19q-64 0 -100 34t-36 89q0 29 9 65l96 -16q-6 -19 -6 -39q0 -26 13 -38t43 -12v35q0 93 60 133t179 40q112 0 167 -38t55 -135v-118zM466 286v70q0 23 -18.5 35.5
t-66.5 12.5q-53 0 -71.5 -12.5t-18.5 -35.5v-70h175z" />
    <glyph glyph-name="uni04BE" unicode="&#x4be;" horiz-adv-x="855" 
d="M703 -186q-49 0 -74 18.5t-25 61.5q0 48 32 100q-74 -4 -112 -4q-62 0 -110.5 5.5t-93 19.5t-74 37.5t-46.5 60t-17 85.5v92h-49q-81 0 -113.5 33.5t-32.5 110.5q0 29 9 65l106 -16q-6 -19 -6 -39q0 -27 13.5 -38.5t45.5 -11.5h27v68q0 50 22.5 88t54 58t76.5 32.5
t80 15.5t74 3q40 0 75.5 -3t80.5 -15.5t77 -32.5t54 -57.5t22 -88.5v-175h-460v-78q0 -53 52 -80.5t149 -27.5q111 0 234 29v-118l-48 -9q-21 -42 -21 -86q0 -16 8 -24t30 -8q12 0 30 6v-67q-21 -10 -70 -10zM339 463v-74h304v74q0 47 -38.5 66t-113.5 19q-76 0 -114 -18.5
t-38 -66.5z" />
    <glyph glyph-name="uni04BF" unicode="&#x4bf;" horiz-adv-x="653" 
d="M520 -186q-50 0 -74.5 18.5t-24.5 61.5q0 46 30 97q-15 -1 -50 -1q-257 0 -257 157v56h-19q-64 0 -100 34t-36 89q0 29 9 65l96 -16q-6 -19 -6 -39q0 -26 13 -38t43 -12v35q0 93 60 133t179 40q112 0 167 -38t55 -135v-118h-314v-44q0 -41 29 -59.5t109 -18.5
q72 0 162 21v-93q-42 -9 -51 -10q-18 -41 -18 -82q0 -16 8 -24t30 -8q12 0 30 6v-67q-21 -10 -70 -10zM466 286v70q0 23 -18.5 35.5t-66.5 12.5q-53 0 -71.5 -12.5t-18.5 -35.5v-70h175z" />
    <glyph glyph-name="uni04C0" unicode="&#x4c0;" horiz-adv-x="296" 
d="M226 0h-156v649h156v-649z" />
    <glyph glyph-name="uni04C1" unicode="&#x4c1;" horiz-adv-x="1015" 
d="M581 649v-259q35 0 46.5 6.5t26.5 30.5l69 114q42 69 76.5 88.5t116.5 19.5h71v-111h-41q-50 0 -64 -7.5t-37 -44.5l-40 -65q-19 -30 -34.5 -43.5t-38.5 -22.5q25 -6 65 -43t82 -100l142 -212h-181l-124 191q-40 62 -63 76.5t-72 14.5v-282h-147v282q-49 0 -72 -14.5
t-63 -76.5l-124 -191h-181l142 212q42 63 82 100t65 43q-23 9 -38.5 22.5t-34.5 43.5l-40 65q-23 37 -37 44.5t-64 7.5h-41v111h71q82 0 116.5 -19.5t76.5 -88.5l69 -114q15 -24 26.5 -30.5t46.5 -6.5v259h147zM645 845q-4 -57 -40.5 -92t-97.5 -35q-62 0 -98.5 35t-39.5 92
h81q6 -29 18 -42t39 -13q50 0 56 55h82z" />
    <glyph glyph-name="uni04C2" unicode="&#x4c2;" horiz-adv-x="808" 
d="M474 484v-194q15 0 22 4t17 21l47 77q41 68 64 80t113 12h48v-90h-16q-37 0 -54.5 -7.5t-33.5 -30.5l-28 -40q-26 -38 -49 -50q48 -20 96 -87l127 -179h-168l-92 135q-32 47 -45 56.5t-48 9.5v-201h-139v201q-35 0 -48.5 -10t-45.5 -56l-92 -135h-168l127 179
q48 67 96 87q-23 12 -49 50l-28 40q-16 23 -33.5 30.5t-54.5 7.5h-16v90h48q90 0 113 -12t64 -80l47 -77q10 -16 17.5 -20.5t22.5 -4.5v194h139zM542 680q-4 -57 -40.5 -92t-97.5 -35q-62 0 -98.5 35t-39.5 92h81q6 -29 18 -42t39 -13q50 0 56 55h82z" />
    <glyph glyph-name="uni04C3" unicode="&#x4c3;" horiz-adv-x="678" 
d="M457 421q-14 -22 -27 -37q99 -23 157.5 -92t58.5 -165q0 -172 -80 -259.5t-230 -87.5q-98 0 -167 43.5t-79 114.5h115q12 -24 46 -40t82 -16q73 0 117.5 54t44.5 169q0 89 -44.5 133t-127.5 44h-100v-282h-153v649h153v-259q37 0 53 7t30 30l69 114q42 69 76.5 88.5
t116.5 19.5h71v-111h-41q-50 0 -64 -7.5t-37 -44.5z" />
    <glyph glyph-name="uni04C4" unicode="&#x4c4;" horiz-adv-x="554" 
d="M399 316q-12 -18 -26 -32q86 -23 127 -86t41 -149q0 -129 -70.5 -199t-185.5 -70q-95 0 -152 44t-65 118h122q11 -34 32 -49.5t63 -15.5q50 0 79.5 45t29.5 119q0 78 -31 118t-100 40h-53v-199h-146v484h146v-194q22 0 30.5 4t18.5 21l47 77q41 68 64 80t113 12h48v-90
h-16q-37 0 -54.5 -7.5t-33.5 -30.5z" />
    <glyph glyph-name="uni04C5" unicode="&#x4c5;" horiz-adv-x="761" 
d="M514 -166l60 166h-39v538h-246v-397q0 -39 -10.5 -67t-26 -43.5t-42 -24t-50.5 -11t-59 -2.5q-56 0 -81 5v102q18 -5 52 -5q61 0 61 66v488h558v-538h64l-100 -277h-141z" />
    <glyph glyph-name="uni04C6" unicode="&#x4c6;" horiz-adv-x="611" 
d="M370 -134l54 134h-22v394h-161v-253q0 -40 -8.5 -67.5t-21.5 -43t-36 -24t-45.5 -11t-56.5 -2.5q-36 0 -61 5v89q18 -5 32 -5q28 0 39.5 17.5t11.5 66.5v318h452v-373h64l-100 -245h-141z" />
    <glyph glyph-name="uni04C7" unicode="&#x4c7;" horiz-adv-x="728" 
d="M658 649v-529q0 -83 -16.5 -144.5t-44 -98.5t-70 -59t-86.5 -30t-102 -8q-241 0 -275 149h156q12 -15 22 -23.5t34 -15.5t60 -7q91 0 128.5 54.5t37.5 188.5v152h-276v-278h-156v649h156v-260h276v260h156z" />
    <glyph glyph-name="uni04C8" unicode="&#x4c8;" horiz-adv-x="617" 
d="M553 484v-444q0 -145 -65.5 -202.5t-188.5 -57.5q-196 0 -225 149h136q7 -19 30.5 -32.5t55.5 -13.5q66 0 88.5 30.5t22.5 132.5v156h-197v-202h-146v484h146v-187h197v187h146z" />
    <glyph glyph-name="uni04C9" unicode="&#x4c9;" horiz-adv-x="728" 
d="M482 -166l60 166h-40v278h-276v-278h-156v649h156v-260h276v260h156l1 -538h64l-100 -277h-141z" />
    <glyph glyph-name="uni04CA" unicode="&#x4ca;" horiz-adv-x="617" 
d="M377 -134l54 134h-24v202h-197v-202h-146v484h146v-187h197v187h146l1 -373h64l-100 -245h-141z" />
    <glyph glyph-name="uni04CB" unicode="&#x4cb;" horiz-adv-x="694" 
d="M62 649h156v-259q0 -46 22 -63t91 -17q74 0 105.5 15t31.5 55v269h156v-649h-79v-166h-141v277h64v168q-10 -46 -51 -60t-142 -14q-116 0 -164.5 37t-48.5 116v291z" />
    <glyph glyph-name="uni04CC" unicode="&#x4cc;" horiz-adv-x="595" 
d="M54 483h151v-162q0 -55 12 -67.5t66 -12.5q64 0 80.5 11.5t16.5 58.5v172h151v-483h-86v-134h-129v225h64v122q-16 -73 -138 -73q-78 0 -120 18.5t-55 49t-13 85.5v190z" />
    <glyph glyph-name="uni04CD" unicode="&#x4cd;" horiz-adv-x="889" 
d="M642 -166l60 166h-24v480h-3l-164 -480h-125l-169 480h-4v-480h-143v649h222l160 -464l158 464h209v-538h64l-100 -277h-141z" />
    <glyph glyph-name="uni04CE" unicode="&#x4ce;" horiz-adv-x="735" 
d="M494 -134l54 134h-10v330h-5l-116 -330h-107l-112 330h-5v-330h-129v484h199l106 -326l113 326h189v-373h64l-100 -245h-141z" />
    <glyph glyph-name="uni04CF" unicode="&#x4cf;" horiz-adv-x="282" 
d="M214 0h-146v700h146v-700z" />
    <glyph glyph-name="uni04D0" unicode="&#x4d0;" horiz-adv-x="668" 
d="M666 0h-158l-58 171h-237l-57 -171h-154l240 649h190zM416 275l-82 244h-4l-82 -244h168zM472 845q-4 -57 -40.5 -92t-97.5 -35q-62 0 -98.5 35t-39.5 92h81q6 -29 18 -42t39 -13q50 0 56 55h82z" />
    <glyph glyph-name="uni04D1" unicode="&#x4d1;" horiz-adv-x="564" 
d="M500 0h-143v44q-16 -29 -46 -41.5t-110 -12.5q-98 0 -130 30t-32 125q0 86 33 119.5t118 33.5h164v33q0 44 -20.5 58.5t-86.5 14.5q-62 0 -170 -12v92q83 10 185 10q134 0 186 -32.5t52 -128.5v-333zM354 124v94h-100q-48 0 -60 -11t-12 -59q0 -47 12.5 -57t63.5 -10
q25 0 37 0.5t26 2.5t19.5 6.5t9.5 12.5t4 21zM420 680q-4 -57 -40.5 -92t-97.5 -35q-62 0 -98.5 35t-39.5 92h81q6 -29 18 -42t39 -13q50 0 56 55h82z" />
    <glyph glyph-name="uni04D2" unicode="&#x4d2;" horiz-adv-x="668" 
d="M666 0h-158l-58 171h-237l-57 -171h-154l240 649h190zM416 275l-82 244h-4l-82 -244h168zM492 730h-126v118h126v-118zM302 730h-126v118h126v-118z" />
    <glyph glyph-name="uni04D3" unicode="&#x4d3;" horiz-adv-x="564" 
d="M500 0h-143v44q-16 -29 -46 -41.5t-110 -12.5q-98 0 -130 30t-32 125q0 86 33 119.5t118 33.5h164v33q0 44 -20.5 58.5t-86.5 14.5q-62 0 -170 -12v92q83 10 185 10q134 0 186 -32.5t52 -128.5v-333zM354 124v94h-100q-48 0 -60 -11t-12 -59q0 -47 12.5 -57t63.5 -10
q25 0 37 0.5t26 2.5t19.5 6.5t9.5 12.5t4 21zM440 565h-126v118h126v-118zM250 565h-126v118h126v-118z" />
    <glyph glyph-name="uni04D4" unicode="&#x4d4;" horiz-adv-x="990" 
d="M955 0h-485v171h-225l-79 -171h-166l330 649h615v-111h-322v-149h289v-111h-289v-167h332v-111zM470 275v263h-57l-121 -263h178z" />
    <glyph glyph-name="uni04D5" unicode="&#x4d5;" horiz-adv-x="845" 
d="M797 203h-309v-44q0 -41 28 -59.5t108 -18.5q70 0 160 21v-93q-92 -19 -188 -19q-174 0 -222 77q-23 -45 -56.5 -61t-116.5 -16q-98 0 -130 30t-32 125q0 86 33 119.5t118 33.5h164v33q0 44 -20.5 58.5t-86.5 14.5q-62 0 -170 -12v92q83 10 185 10q112 0 161 -31
q52 31 155 31q111 0 165 -38t54 -135v-118zM354 124v94h-100q-48 0 -60 -11t-12 -59q0 -47 12.5 -57t63.5 -10q25 0 37 0.5t26 2.5t19.5 6.5t9.5 12.5t4 21zM659 286v70q0 24 -17.5 36t-65.5 12q-53 0 -70.5 -12t-17.5 -36v-70h171z" />
    <glyph glyph-name="uni04D6" unicode="&#x4d6;" horiz-adv-x="610" 
d="M575 0h-505v649h495v-111h-339v-149h306v-111h-306v-167h349v-111zM443 845q-4 -57 -40.5 -92t-97.5 -35q-62 0 -98.5 35t-39.5 92h81q6 -29 18 -42t39 -13q50 0 56 55h82z" />
    <glyph glyph-name="uni04D7" unicode="&#x4d7;" horiz-adv-x="559" 
d="M511 203h-314v-44q0 -41 29 -59.5t109 -18.5q72 0 162 21v-93q-92 -19 -190 -19q-257 0 -257 157v174q0 93 60 133t179 40q112 0 167 -38t55 -135v-118zM372 286v70q0 23 -18.5 35.5t-66.5 12.5q-53 0 -71.5 -12.5t-18.5 -35.5v-70h175zM417 680q-4 -57 -40.5 -92
t-97.5 -35q-62 0 -98.5 35t-39.5 92h81q6 -29 18 -42t39 -13q50 0 56 55h82z" />
    <glyph glyph-name="uni04D8" unicode="&#x4d8;" horiz-adv-x="728" 
d="M672 451v-264q0 -50 -22.5 -88t-54 -58t-76.5 -32.5t-80 -15.5t-74 -3q-40 0 -75.5 3t-80.5 15.5t-77 32.5t-54 57.5t-22 88.5v175h460v78q0 53 -52 80.5t-149 27.5q-111 0 -234 -29v118q110 22 250 22q62 0 110.5 -5.5t93 -19.5t74 -37.5t46.5 -60t17 -85.5zM516 186v74
h-304v-74q0 -47 38.5 -66t113.5 -19q76 0 114 18.5t38 66.5z" />
    <glyph glyph-name="uni04D9" unicode="&#x4d9;" horiz-adv-x="559" 
d="M50 281h314v44q0 41 -29 59.5t-109 18.5q-72 0 -162 -21v93q92 19 190 19q257 0 257 -157v-174q0 -93 -60 -133t-179 -40q-112 0 -167 38t-55 135v118zM189 198v-70q0 -23 18.5 -35.5t66.5 -12.5q53 0 71.5 12.5t18.5 35.5v70h-175z" />
    <glyph glyph-name="uni04DA" unicode="&#x4da;" horiz-adv-x="728" 
d="M672 451v-264q0 -50 -22.5 -88t-54 -58t-76.5 -32.5t-80 -15.5t-74 -3q-40 0 -75.5 3t-80.5 15.5t-77 32.5t-54 57.5t-22 88.5v175h460v78q0 53 -52 80.5t-149 27.5q-111 0 -234 -29v118q110 22 250 22q62 0 110.5 -5.5t93 -19.5t74 -37.5t46.5 -60t17 -85.5zM516 186v74
h-304v-74q0 -47 38.5 -66t113.5 -19q76 0 114 18.5t38 66.5zM522 730h-126v118h126v-118zM332 730h-126v118h126v-118z" />
    <glyph glyph-name="uni04DB" unicode="&#x4db;" horiz-adv-x="559" 
d="M50 281h314v44q0 41 -29 59.5t-109 18.5q-72 0 -162 -21v93q92 19 190 19q257 0 257 -157v-174q0 -93 -60 -133t-179 -40q-112 0 -167 38t-55 135v118zM189 198v-70q0 -23 18.5 -35.5t66.5 -12.5q53 0 71.5 12.5t18.5 35.5v70h-175zM437 565h-126v118h126v-118zM247 565
h-126v118h126v-118z" />
    <glyph glyph-name="uni04DC" unicode="&#x4dc;" horiz-adv-x="1015" 
d="M581 649v-259q35 0 46.5 6.5t26.5 30.5l69 114q42 69 76.5 88.5t116.5 19.5h71v-111h-41q-50 0 -64 -7.5t-37 -44.5l-40 -65q-19 -30 -34.5 -43.5t-38.5 -22.5q25 -6 65 -43t82 -100l142 -212h-181l-124 191q-40 62 -63 76.5t-72 14.5v-282h-147v282q-49 0 -72 -14.5
t-63 -76.5l-124 -191h-181l142 212q42 63 82 100t65 43q-23 9 -38.5 22.5t-34.5 43.5l-40 65q-23 37 -37 44.5t-64 7.5h-41v111h71q82 0 116.5 -19.5t76.5 -88.5l69 -114q15 -24 26.5 -30.5t46.5 -6.5v259h147zM665 730h-126v118h126v-118zM475 730h-126v118h126v-118z" />
    <glyph glyph-name="uni04DD" unicode="&#x4dd;" horiz-adv-x="808" 
d="M474 484v-194q15 0 22 4t17 21l47 77q41 68 64 80t113 12h48v-90h-16q-37 0 -54.5 -7.5t-33.5 -30.5l-28 -40q-26 -38 -49 -50q48 -20 96 -87l127 -179h-168l-92 135q-32 47 -45 56.5t-48 9.5v-201h-139v201q-35 0 -48.5 -10t-45.5 -56l-92 -135h-168l127 179
q48 67 96 87q-23 12 -49 50l-28 40q-16 23 -33.5 30.5t-54.5 7.5h-16v90h48q90 0 113 -12t64 -80l47 -77q10 -16 17.5 -20.5t22.5 -4.5v194h139zM562 565h-126v118h126v-118zM372 565h-126v118h126v-118z" />
    <glyph glyph-name="uni04DE" unicode="&#x4de;" horiz-adv-x="601" 
d="M538 251v-107q0 -154 -260 -154q-125 0 -238 18v119q132 -26 219 -26q63 0 93 14.5t30 37.5v75q0 28 -27 38.5t-94 10.5h-138v111h138q53 0 75.5 11t22.5 37v61q0 28 -24.5 39.5t-92.5 11.5q-12 0 -190 -12v114q137 9 206 9q122 0 188 -27.5t66 -99.5v-107
q0 -30 -19.5 -50t-45.5 -27q91 -33 91 -97zM458 730h-126v118h126v-118zM268 730h-126v118h126v-118z" />
    <glyph glyph-name="uni04DF" unicode="&#x4df;" horiz-adv-x="533" 
d="M490 173v-46q0 -81 -59.5 -109t-187.5 -28q-101 0 -208 15v102q128 -26 209 -26q59 0 79.5 10t20.5 43v25q0 28 -26.5 39t-81.5 11h-108v91h108q85 0 85 52v4q0 29 -20.5 38.5t-83.5 9.5q-76 0 -172 -12v93q76 9 188 9q132 0 181.5 -24t49.5 -88v-37q0 -31 -18.5 -50.5
t-43.5 -26.5q88 -32 88 -95zM424 565h-126v118h126v-118zM234 565h-126v118h126v-118z" />
    <glyph glyph-name="uni04E0" unicode="&#x4e0;" horiz-adv-x="604" 
d="M551 649v-85l-168 -176q71 -20 115 -71.5t44 -119.5q0 -96 -68.5 -151.5t-183.5 -55.5q-195 0 -256 212l115 29q21 -60 60.5 -101.5t80.5 -41.5q50 0 81.5 29t31.5 77t-31 77t-88 29h-64v85l162 166h-324v98h493z" />
    <glyph glyph-name="uni04E1" unicode="&#x4e1;" horiz-adv-x="545" 
d="M492 60q0 -101 -68 -169.5t-171 -68.5q-93 0 -155.5 55t-70.5 151l115 9q9 -55 40.5 -87t70.5 -32q46 0 75 38t29 97q0 57 -32 90t-85 33h-66v87l121 125h-247v96h419v-71l-142 -143q75 -17 121 -74.5t46 -135.5z" />
    <glyph glyph-name="uni04E2" unicode="&#x4e2;" horiz-adv-x="751" 
d="M238 0h-168v649h149v-453l294 453h168v-649h-149v460zM514 725h-278v89h278v-89z" />
    <glyph glyph-name="uni04E3" unicode="&#x4e3;" horiz-adv-x="643" 
d="M231 0h-167v484h135v-341l213 341h167v-484h-135v350zM460 560h-278v89h278v-89z" />
    <glyph glyph-name="uni04E4" unicode="&#x4e4;" horiz-adv-x="751" 
d="M238 0h-168v649h149v-453l294 453h168v-649h-149v460zM533 730h-126v118h126v-118zM343 730h-126v118h126v-118z" />
    <glyph glyph-name="uni04E5" unicode="&#x4e5;" horiz-adv-x="643" 
d="M231 0h-167v484h135v-341l213 341h167v-484h-135v350zM479 565h-126v118h126v-118zM289 565h-126v118h126v-118z" />
    <glyph glyph-name="uni04E6" unicode="&#x4e6;" horiz-adv-x="728" 
d="M672 462v-284q0 -55 -29 -94t-78 -58.5t-98 -27.5t-104 -8q-52 0 -97.5 6.5t-97 24.5t-82 58t-30.5 99v284q0 50 22.5 88t54 58t76.5 32.5t80 15.5t74 3q40 0 75.5 -3t80.5 -15.5t77 -32.5t54 -57.5t22 -88.5zM516 178v285q0 47 -38.5 66t-113.5 19q-76 0 -114 -18.5
t-38 -66.5v-285q0 -25 13 -41.5t37.5 -23.5t47 -9.5t55.5 -2.5t55.5 2.5t46.5 9.5t36.5 23.5t12.5 41.5zM522 730h-126v118h126v-118zM332 730h-126v118h126v-118z" />
    <glyph glyph-name="uni04E7" unicode="&#x4e7;" horiz-adv-x="592" 
d="M542 309v-143q0 -47 -15 -80.5t-37 -52t-57.5 -28.5t-65 -12.5t-71.5 -2.5t-71.5 2.5t-65 12.5t-57.5 28.5t-37 52t-15 80.5v143q0 50 15.5 85.5t38 54.5t58.5 29.5t64.5 13t69.5 2.5t69.5 -2.5t64.5 -13t58.5 -29.5t38 -54.5t15.5 -85.5zM396 149v183q0 39 -20 55.5
t-80 16.5t-80 -16.5t-20 -55.5v-183q0 -38 19.5 -53t80.5 -15t80.5 15t19.5 53zM454 565h-126v118h126v-118zM264 565h-126v118h126v-118z" />
    <glyph glyph-name="uni04E8" unicode="&#x4e8;" horiz-adv-x="728" 
d="M672 462v-284q0 -55 -29 -94t-78 -58.5t-98 -27.5t-104 -8q-52 0 -97.5 6.5t-97 24.5t-82 58t-30.5 99v284q0 50 22.5 88t54 58t76.5 32.5t80 15.5t74 3q40 0 75.5 -3t80.5 -15.5t77 -32.5t54 -57.5t22 -88.5zM516 178v100h-304v-100q0 -25 13 -41.5t37.5 -23.5t47 -9.5
t55.5 -2.5t55.5 2.5t46.5 9.5t36.5 23.5t12.5 41.5zM212 463v-74h304v74q0 47 -38.5 66t-113.5 19q-76 0 -114 -18.5t-38 -66.5z" />
    <glyph glyph-name="uni04E9" unicode="&#x4e9;" horiz-adv-x="592" 
d="M542 309v-143q0 -47 -15 -80.5t-37 -52t-57.5 -28.5t-65 -12.5t-71.5 -2.5t-71.5 2.5t-65 12.5t-57.5 28.5t-37 52t-15 80.5v143q0 50 15.5 85.5t38 54.5t58.5 29.5t64.5 13t69.5 2.5t69.5 -2.5t64.5 -13t58.5 -29.5t38 -54.5t15.5 -85.5zM396 149v53h-200v-53
q0 -38 19.5 -53t80.5 -15t80.5 15t19.5 53zM196 332v-35h200v35q0 39 -20 55.5t-80 16.5t-80 -16.5t-20 -55.5z" />
    <glyph glyph-name="uni04EA" unicode="&#x4ea;" horiz-adv-x="728" 
d="M672 462v-284q0 -55 -29 -94t-78 -58.5t-98 -27.5t-104 -8q-52 0 -97.5 6.5t-97 24.5t-82 58t-30.5 99v284q0 50 22.5 88t54 58t76.5 32.5t80 15.5t74 3q40 0 75.5 -3t80.5 -15.5t77 -32.5t54 -57.5t22 -88.5zM516 178v100h-304v-100q0 -25 13 -41.5t37.5 -23.5t47 -9.5
t55.5 -2.5t55.5 2.5t46.5 9.5t36.5 23.5t12.5 41.5zM212 463v-74h304v74q0 47 -38.5 66t-113.5 19q-76 0 -114 -18.5t-38 -66.5zM522 730h-126v118h126v-118zM332 730h-126v118h126v-118z" />
    <glyph glyph-name="uni04EB" unicode="&#x4eb;" horiz-adv-x="592" 
d="M542 309v-143q0 -47 -15 -80.5t-37 -52t-57.5 -28.5t-65 -12.5t-71.5 -2.5t-71.5 2.5t-65 12.5t-57.5 28.5t-37 52t-15 80.5v143q0 50 15.5 85.5t38 54.5t58.5 29.5t64.5 13t69.5 2.5t69.5 -2.5t64.5 -13t58.5 -29.5t38 -54.5t15.5 -85.5zM396 149v53h-200v-53
q0 -38 19.5 -53t80.5 -15t80.5 15t19.5 53zM196 332v-35h200v35q0 39 -20 55.5t-80 16.5t-80 -16.5t-20 -55.5zM454 565h-126v118h126v-118zM264 565h-126v118h126v-118z" />
    <glyph glyph-name="uni04EC" unicode="&#x4ec;" horiz-adv-x="597" 
d="M120 278v111h265v76q0 28 -10.5 45.5t-32.5 25.5t-43 10t-54 2q-81 0 -191 -26v117q120 20 206 20q59 0 99.5 -4t77.5 -16t58 -33.5t33.5 -57t12.5 -85.5v-285q0 -48 -21 -83.5t-51.5 -55t-74 -31t-79 -15t-75.5 -3.5q-100 0 -210 22v118q123 -29 194 -29q161 0 161 88
v89h-265zM456 730h-126v118h126v-118zM266 730h-126v118h126v-118z" />
    <glyph glyph-name="uni04ED" unicode="&#x4ed;" horiz-adv-x="509" 
d="M30 7v96q103 -22 179 -22q60 0 81 12.5t21 48.5v59h-232v91h232v52q0 36 -18.5 48t-73.5 12q-78 0 -182 -24v96q92 18 193 18q32 0 51.5 -0.5t46.5 -4.5t43.5 -10.5t35 -19.5t28.5 -31.5t17 -46t7 -63.5v-161q0 -34 -8 -60.5t-19.5 -44t-32 -30t-38 -18.5t-46.5 -9.5
t-47.5 -4t-49.5 -0.5q-100 0 -188 17zM412 565h-126v118h126v-118zM222 565h-126v118h126v-118z" />
    <glyph glyph-name="uni04EE" unicode="&#x4ee;" horiz-adv-x="636" 
d="M626 649l-248 -521q-33 -70 -80 -104t-129 -34q-46 0 -100 10v114q43 -13 73 -13q64 0 90 56l27 57l-249 435h159l166 -293l132 293h159zM457 725h-278v89h278v-89z" />
    <glyph glyph-name="uni04EF" unicode="&#x4ef;" horiz-adv-x="534" 
d="M526 484l-265 -692h-148l88 212l-193 480h159l109 -342l99 342h151zM406 560h-278v89h278v-89z" />
    <glyph glyph-name="uni04F0" unicode="&#x4f0;" horiz-adv-x="636" 
d="M626 649l-248 -521q-33 -70 -80 -104t-129 -34q-46 0 -100 10v114q43 -13 73 -13q64 0 90 56l27 57l-249 435h159l166 -293l132 293h159zM476 730h-126v118h126v-118zM286 730h-126v118h126v-118z" />
    <glyph glyph-name="uni04F1" unicode="&#x4f1;" horiz-adv-x="534" 
d="M526 484l-265 -692h-148l88 212l-193 480h159l109 -342l99 342h151zM425 565h-126v118h126v-118zM235 565h-126v118h126v-118z" />
    <glyph glyph-name="uni04F2" unicode="&#x4f2;" horiz-adv-x="636" 
d="M626 649l-248 -521q-33 -70 -80 -104t-129 -34q-46 0 -100 10v114q43 -13 73 -13q64 0 90 56l27 57l-249 435h159l166 -293l132 293h159zM475 840l-70 -128h-96l70 128h96zM328 840l-70 -128h-96l70 128h96z" />
    <glyph glyph-name="uni04F3" unicode="&#x4f3;" horiz-adv-x="534" 
d="M526 484l-265 -692h-148l88 212l-193 480h159l109 -342l99 342h151zM424 680l-70 -128h-96l70 128h96zM277 680l-70 -128h-96l70 128h96z" />
    <glyph glyph-name="uni04F4" unicode="&#x4f4;" horiz-adv-x="694" 
d="M62 649h156v-259q0 -46 22 -63t91 -17q74 0 105.5 15t31.5 55v269h156v-649h-156v279q-10 -46 -51 -60t-142 -14q-116 0 -164.5 37t-48.5 116v291zM505 730h-126v118h126v-118zM315 730h-126v118h126v-118z" />
    <glyph glyph-name="uni04F5" unicode="&#x4f5;" horiz-adv-x="595" 
d="M54 483h151v-162q0 -55 12 -67.5t66 -12.5q64 0 80.5 11.5t16.5 58.5v172h151v-483h-151v213q-16 -73 -138 -73q-78 0 -120 18.5t-55 49t-13 85.5v190zM455 565h-126v118h126v-118zM265 565h-126v118h126v-118z" />
    <glyph glyph-name="uni04F6" unicode="&#x4f6;" horiz-adv-x="517" 
d="M149 -166v166h-79v649h425v-111h-269v-427h64v-277h-141z" />
    <glyph glyph-name="uni04F7" unicode="&#x4f7;" horiz-adv-x="405" 
d="M145 -134v134h-81v484h325v-90h-179v-303h64v-225h-129z" />
    <glyph glyph-name="uni04F8" unicode="&#x4f8;" horiz-adv-x="941" 
d="M622 268v-114q0 -154 -262 -154h-290v649h156v-245h116q39 0 61.5 -0.5t56.5 -3t53.5 -7.5t43 -15t36 -24.5t21 -36t8.5 -49.5zM466 178v61q0 32 -27.5 42.5t-83.5 10.5h-129v-181h127q61 0 87 17t26 50zM871 0h-156v649h156v-649zM628 730h-126v118h126v-118zM438 730
h-126v118h126v-118z" />
    <glyph glyph-name="uni04F9" unicode="&#x4f9;" horiz-adv-x="830" 
d="M542 181v-52q0 -71 -60.5 -100t-176.5 -29h-241v484h146v-167h92q147 0 193.5 -26t46.5 -110zM391 150v22q0 33 -19.5 43t-71.5 10h-90v-134h88q60 0 76.5 12.5t16.5 46.5zM766 0h-146v484h146v-484zM573 565h-126v118h126v-118zM383 565h-126v118h126v-118z" />
    <glyph glyph-name="Wgrave" unicode="&#x1e80;" horiz-adv-x="985" 
d="M977 649l-208 -649h-154l-124 471l-128 -471h-154l-201 649h162l126 -474l126 474h145l136 -474l116 474h158zM617 718h-124l-125 127h159z" />
    <glyph glyph-name="wgrave" unicode="&#x1e81;" horiz-adv-x="822" 
d="M814 484l-158 -484h-148l-96 327l-94 -327h-148l-162 484h149l90 -351l96 351h143l100 -351l86 351h142zM535 553h-124l-125 127h159z" />
    <glyph glyph-name="Wacute" unicode="&#x1e82;" horiz-adv-x="985" 
d="M977 649l-208 -649h-154l-124 471l-128 -471h-154l-201 649h162l126 -474l126 474h145l136 -474l116 474h158zM617 845l-125 -127h-124l90 127h159z" />
    <glyph glyph-name="wacute" unicode="&#x1e83;" horiz-adv-x="822" 
d="M814 484l-158 -484h-148l-96 327l-94 -327h-148l-162 484h149l90 -351l96 351h143l100 -351l86 351h142zM535 680l-125 -127h-124l90 127h159z" />
    <glyph glyph-name="Wdieresis" unicode="&#x1e84;" horiz-adv-x="985" 
d="M977 649l-208 -649h-154l-124 471l-128 -471h-154l-201 649h162l126 -474l126 474h145l136 -474l116 474h158zM650 730h-126v118h126v-118zM460 730h-126v118h126v-118z" />
    <glyph glyph-name="wdieresis" unicode="&#x1e85;" horiz-adv-x="822" 
d="M814 484l-158 -484h-148l-96 327l-94 -327h-148l-162 484h149l90 -351l96 351h143l100 -351l86 351h142zM569 565h-126v118h126v-118zM379 565h-126v118h126v-118z" />
    <glyph glyph-name="Ygrave" unicode="&#x1ef2;" horiz-adv-x="644" 
d="M636 649l-237 -387v-262h-156v260l-235 389h177l137 -254l136 254h178zM446 718h-124l-125 127h159z" />
    <glyph glyph-name="ygrave" unicode="&#x1ef3;" horiz-adv-x="534" 
d="M526 484l-265 -692h-148l88 212l-193 480h159l109 -342l99 342h151zM391 553h-124l-125 127h159z" />
    <glyph glyph-name="endash" unicode="&#x2013;" 
d="M509 239h-438v101h438v-101z" />
    <glyph glyph-name="emdash" unicode="&#x2014;" horiz-adv-x="818" 
d="M778 239h-738v101h738v-101z" />
    <glyph glyph-name="quoteleft" unicode="&#x2018;" horiz-adv-x="256" 
d="M29 429l94 220h104l-46 -220h-152z" />
    <glyph glyph-name="quoteright" unicode="&#x2019;" horiz-adv-x="256" 
d="M243 649l-94 -220h-104l46 220h152z" />
    <glyph glyph-name="quotesinglbase" unicode="&#x201a;" horiz-adv-x="256" 
d="M218 111l-94 -220h-104l46 220h152z" />
    <glyph glyph-name="quotedblleft" unicode="&#x201c;" horiz-adv-x="476" 
d="M29 429l94 220h104l-46 -220h-152zM249 429l94 220h104l-46 -220h-152z" />
    <glyph glyph-name="quotedblright" unicode="&#x201d;" horiz-adv-x="466" 
d="M243 649l-94 -220h-104l46 220h152zM453 649l-94 -220h-104l46 220h152z" />
    <glyph glyph-name="quotedblbase" unicode="&#x201e;" horiz-adv-x="476" 
d="M218 111l-94 -220h-104l46 220h152zM438 111l-94 -220h-104l46 220h152z" />
    <glyph glyph-name="dagger" unicode="&#x2020;" horiz-adv-x="554" 
d="M528 385h-179v-550h-144v550h-179v99h179v165h144v-165h179v-99z" />
    <glyph glyph-name="daggerdbl" unicode="&#x2021;" horiz-adv-x="554" 
d="M528 0h-179v-165h-144v165h-179v99h179v286h-179v99h179v165h144v-165h179v-99h-179v-286h179v-99z" />
    <glyph glyph-name="bullet" unicode="&#x2022;" horiz-adv-x="479" 
d="M424 289q0 -77 -54 -131t-130 -54q-77 0 -131 54t-54 131t53.5 130.5t130.5 53.5t131 -53.5t54 -130.5z" />
    <glyph glyph-name="ellipsis" unicode="&#x2026;" horiz-adv-x="768" 
d="M206 0h-156v138h156v-138zM462 0h-156v138h156v-138zM718 0h-156v138h156v-138z" />
    <glyph glyph-name="perthousand" unicode="&#x2030;" horiz-adv-x="1225" 
d="M818 224v-119q0 -71 -41 -93t-125 -22q-85 0 -126 22t-41 93v119q0 34 10.5 58.5t25.5 37.5t39 20.5t44 9.5t48 2t48 -2t44 -9.5t38.5 -20.5t25 -37.5t10.5 -58.5zM636 659l-324 -669h-87l324 669h87zM370 513v-119q0 -71 -41 -93t-125 -22q-85 0 -126 22t-41 93v119
q0 34 10.5 58.5t25.5 37.5t39 20.5t44 9.5t48 2t48 -2t44 -9.5t38.5 -20.5t25 -37.5t10.5 -58.5zM707 95v147q0 34 -55 34q-56 0 -56 -34v-147q0 -29 56 -29q55 0 55 29zM259 384v147q0 34 -55 34q-56 0 -56 -34v-147q0 -18 14 -23.5t42 -5.5q55 0 55 29zM1188 224v-119
q0 -71 -41 -93t-125 -22q-85 0 -126 22t-41 93v119q0 34 10.5 58.5t25.5 37.5t39 20.5t44 9.5t48 2t48 -2t44 -9.5t38.5 -20.5t25 -37.5t10.5 -58.5zM1077 95v147q0 34 -55 34q-56 0 -56 -34v-147q0 -29 56 -29q55 0 55 29z" />
    <glyph glyph-name="guilsinglleft" unicode="&#x2039;" horiz-adv-x="306" 
d="M266 70h-126l-100 192l100 192h126l-92 -192z" />
    <glyph glyph-name="guilsinglright" unicode="&#x203a;" horiz-adv-x="306" 
d="M266 262l-100 -192h-126l92 192l-92 192h126z" />
    <glyph glyph-name="fraction" unicode="&#x2044;" horiz-adv-x="120" 
d="M-186 0l392 649h101l-392 -649h-101z" />
    <glyph glyph-name="zerosuperior" unicode="&#x2070;" horiz-adv-x="378" 
d="M25 379v164q0 30 10 51.5t24 33t37.5 18t43.5 8t48 1.5q35 0 59 -3t50.5 -13.5t40.5 -34.5t14 -61v-164q0 -37 -14 -61t-40.5 -34t-50.5 -13.5t-59 -3.5q-28 0 -48 1.5t-43.5 8t-37.5 18t-24 33t-10 51.5zM144 549v-176q0 -21 7.5 -27.5t37.5 -6.5q29 0 36 6.5t7 27.5
v176q0 22 -7 28.5t-36 6.5q-30 0 -37.5 -6.5t-7.5 -28.5z" />
    <glyph glyph-name="foursuperior" unicode="&#x2074;" horiz-adv-x="378" 
d="M349 341h-43v-68h-110v68h-188v76l173 232h125v-230h43v-78zM196 419v121l-86 -121h86z" />
    <glyph glyph-name="fivesuperior" unicode="&#x2075;" horiz-adv-x="378" 
d="M334 436v-71q0 -26 -10.5 -45t-26 -29t-39 -15.5t-42 -7t-43.5 -1.5q-61 0 -143 8v89q94 -17 131 -17q52 0 52 22v48q0 21 -35 21h-139v211h284v-82h-165v-50h51q19 0 38.5 -3.5t40 -11.5t33.5 -25t13 -41z" />
    <glyph glyph-name="sixsuperior" unicode="&#x2076;" horiz-adv-x="378" 
d="M348 422v-43q0 -30 -9.5 -51t-24 -33t-37.5 -18.5t-43 -8t-47 -1.5q-36 0 -60 3.5t-49 14t-38 34t-13 60.5v160q0 32 11.5 54.5t28 34t42.5 18t45.5 8t47.5 1.5q19 0 87 -4q5 0 20 -1t19 -1v-81q-99 12 -134 12q-33 0 -41.5 -6t-8.5 -30v-27h54q33 0 51 -1t40 -6t33 -15
t18.5 -28t7.5 -45zM230 375v47q0 14 -7 17.5t-36 3.5h-43v-68q0 -23 7 -29t37 -6q29 0 35.5 6t6.5 29z" />
    <glyph glyph-name="sevensuperior" unicode="&#x2077;" horiz-adv-x="378" 
d="M341 581l-158 -308h-132l158 293h-193v83h325v-68z" />
    <glyph glyph-name="eightsuperior" unicode="&#x2078;" horiz-adv-x="378" 
d="M189 267q-85 0 -127 20t-42 72v56q0 36 50 58q-36 18 -36 49v46q0 44 33.5 65.5t121.5 21.5t121.5 -21.5t33.5 -65.5v-46q0 -30 -38 -49q22 -10 37 -25.5t15 -32.5v-56q0 -52 -41.5 -72t-127.5 -20zM190 432q-29 0 -38 -5.5t-9 -17.5v-43q0 -16 8 -21t38 -5t38 5t8 21v43
q0 12 -8.5 17.5t-36.5 5.5zM189 503q36 0 36 22v36q0 11 -7.5 16.5t-28.5 5.5q-36 0 -36 -22v-36q0 -22 36 -22z" />
    <glyph glyph-name="ninesuperior" unicode="&#x2079;" horiz-adv-x="378" 
d="M348 543v-158q0 -65 -42 -91.5t-132 -26.5q-64 0 -129 7v77q82 -9 128 -9q38 0 47.5 8.5t9.5 37.5v18h-55q-33 0 -51 1t-39.5 6t-32.5 14.5t-18.5 27.5t-7.5 45v43q0 30 10 51.5t24 33t37 18t42.5 8t47.5 1.5q36 0 60 -3t49.5 -13.5t38.5 -34.5t13 -61zM230 480v71
q0 21 -7 26t-37 5q-29 0 -36 -5t-7 -26v-50q0 -13 7.5 -17t35.5 -4h44z" />
    <glyph glyph-name="zeroinferior" unicode="&#x2080;" horiz-adv-x="378" 
d="M25 106v164q0 30 10 51.5t24 33t37.5 18t43.5 8t48 1.5q35 0 59 -3t50.5 -13.5t40.5 -34.5t14 -61v-164q0 -37 -14 -61t-40.5 -34t-50.5 -13.5t-59 -3.5q-28 0 -48 1.5t-43.5 8t-37.5 18t-24 33t-10 51.5zM144 276v-176q0 -21 7.5 -27.5t37.5 -6.5q29 0 36 6.5t7 27.5
v176q0 22 -7 28.5t-36 6.5q-30 0 -37.5 -6.5t-7.5 -28.5z" />
    <glyph glyph-name="oneinferior" unicode="&#x2081;" horiz-adv-x="378" 
d="M272 0h-119v263l-111 -57v92l137 78h93v-376z" />
    <glyph glyph-name="twoinferior" unicode="&#x2082;" horiz-adv-x="378" 
d="M340 0h-313v88q0 33 19.5 57t47.5 36t56 21t47.5 19t19.5 24v38q0 21 -55 21q-28 0 -127 -17v82q80 13 145 13q79 0 119 -22t40 -76v-42q0 -40 -30.5 -66t-67 -35t-67 -23t-30.5 -33v-5h196v-80z" />
    <glyph glyph-name="threeinferior" unicode="&#x2083;" horiz-adv-x="378" 
d="M333 146v-51q0 -54 -39.5 -76.5t-122.5 -22.5q-64 0 -120 7q-4 0 -15.5 1t-13.5 1v88l30 -6q65 -13 107 -13q29 0 40.5 6t11.5 24v34q0 18 -51 18h-87v75h87q36 0 36 25v28q0 13 -9 18t-38 5q-45 0 -125 -8v78l42 2q37 3 92 3q82 0 120.5 -17t38.5 -65v-53q0 -25 -26 -44
q42 -19 42 -57z" />
    <glyph glyph-name="fourinferior" unicode="&#x2084;" horiz-adv-x="378" 
d="M349 68h-43v-68h-110v68h-188v76l173 232h125v-230h43v-78zM196 146v121l-86 -121h86z" />
    <glyph glyph-name="fiveinferior" unicode="&#x2085;" horiz-adv-x="378" 
d="M334 163v-71q0 -26 -10.5 -45t-26 -29t-39 -15.5t-42 -7t-43.5 -1.5q-61 0 -143 8v89q94 -17 131 -17q52 0 52 22v48q0 21 -35 21h-139v211h284v-82h-165v-50h51q19 0 38.5 -3.5t40 -11.5t33.5 -25t13 -41z" />
    <glyph glyph-name="sixinferior" unicode="&#x2086;" horiz-adv-x="378" 
d="M348 149v-43q0 -30 -9.5 -51t-24 -33t-37.5 -18.5t-43 -8t-47 -1.5q-36 0 -60 3.5t-49 14t-38 34t-13 60.5v160q0 32 11.5 54.5t28 34t42.5 18t45.5 8t47.5 1.5q19 0 87 -4q5 0 20 -1t19 -1v-81q-99 12 -134 12q-33 0 -41.5 -6t-8.5 -30v-27h54q33 0 51 -1t40 -6t33 -15
t18.5 -28t7.5 -45zM230 102v47q0 14 -7 17.5t-36 3.5h-43v-68q0 -23 7 -29t37 -6q29 0 35.5 6t6.5 29z" />
    <glyph glyph-name="seveninferior" unicode="&#x2087;" horiz-adv-x="378" 
d="M341 308l-158 -308h-132l158 293h-193v83h325v-68z" />
    <glyph glyph-name="eightinferior" unicode="&#x2088;" horiz-adv-x="378" 
d="M189 -6q-85 0 -127 20t-42 72v56q0 36 50 58q-36 18 -36 49v46q0 44 33.5 65.5t121.5 21.5t121.5 -21.5t33.5 -65.5v-46q0 -30 -38 -49q22 -10 37 -25.5t15 -32.5v-56q0 -52 -41.5 -72t-127.5 -20zM190 159q-29 0 -38 -5.5t-9 -17.5v-43q0 -16 8 -21t38 -5t38 5t8 21v43
q0 12 -8.5 17.5t-36.5 5.5zM189 230q36 0 36 22v36q0 11 -7.5 16.5t-28.5 5.5q-36 0 -36 -22v-36q0 -22 36 -22z" />
    <glyph glyph-name="nineinferior" unicode="&#x2089;" horiz-adv-x="378" 
d="M348 270v-158q0 -65 -42 -91.5t-132 -26.5q-64 0 -129 7v77q82 -9 128 -9q38 0 47.5 8.5t9.5 37.5v18h-55q-33 0 -51 1t-39.5 6t-32.5 14.5t-18.5 27.5t-7.5 45v43q0 30 10 51.5t24 33t37 18t42.5 8t47.5 1.5q36 0 60 -3t49.5 -13.5t38.5 -34.5t13 -61zM230 207v71
q0 21 -7 26t-37 5q-29 0 -36 -5t-7 -26v-50q0 -13 7.5 -17t35.5 -4h44z" />
    <glyph glyph-name="Euro" unicode="&#x20ac;" horiz-adv-x="591" 
d="M569 622l-29 -100q-88 17 -153 17q-33 0 -54 -2t-43.5 -10t-33 -25.5t-10.5 -45.5v-22h268l-25 -91h-243v-57h227l-25 -91h-202v-25q0 -26 13 -42.5t38 -23.5t48 -9.5t56 -2.5q94 0 154 15v-104q-63 -13 -170 -13q-42 0 -73.5 2.5t-73.5 12.5t-68.5 28t-46 52.5
t-19.5 82.5v27h-79v91h79v57h-79v91h79v16q0 51 19.5 87.5t47.5 56t69.5 30.5t73 13.5t71.5 2.5q64 0 184 -18z" />
    <glyph glyph-name="uni20AE" unicode="&#x20ae;" horiz-adv-x="595" 
d="M71 263v98l149 40v137h-200v111h555v-111h-199v-95l139 38v-98l-139 -38v-62l139 38v-98l-139 -38v-185h-156v143l-149 -40v98l149 40v62z" />
    <glyph glyph-name="uni20B4" unicode="&#x20b4;" horiz-adv-x="606" 
d="M0 424v78h411q-5 25 -34.5 35.5t-99.5 10.5q-56 0 -208 -18v116q128 13 203 13q151 0 222 -38.5t74 -118.5h38v-78h-39q-15 -148 -213 -148h-76q-66 0 -81 -38h409v-78h-413q8 -59 130 -59q66 0 232 26v-119q-137 -18 -230 -18q-63 0 -109.5 7.5t-87 25.5t-63.5 52
t-27 85h-38v78h37q2 76 51.5 116t159.5 40h78q65 0 81 30h-407z" />
    <glyph glyph-name="afii61352" unicode="&#x2116;" horiz-adv-x="1343" 
d="M681 0h-158l-314 450v-450h-139v649h158l314 -443v443h139v-649z" />
    <glyph glyph-name="trademark" unicode="&#x2122;" horiz-adv-x="655" 
d="M615 387h-68v150l-61 -150h-60l-64 153v-153h-69v262h91l74 -177l69 177h88v-262zM271 592h-88v-205h-74v205h-89v57h251v-57z" />
    <glyph glyph-name="estimated" unicode="&#x212e;" horiz-adv-x="828" 
d="M786 319h-611q-7 0 -7 -5v-185q0 -10 10 -22q97 -100 232 -100q145 0 242 113h56q-54 -62 -132 -98t-167 -36q-157 0 -268 100.5t-111 241.5q0 139 111.5 238.5t267.5 99.5q155 0 266 -99.5t111 -238.5v-9zM648 343v184q0 13 -11 22q-93 96 -227 96q-135 0 -231 -99
q-11 -11 -11 -23v-180q0 -4 7 -4h467q6 0 6 4z" />
    <glyph glyph-name="onethird" unicode="&#x2153;" horiz-adv-x="956" 
d="M344 273h-119v263l-111 -57v92l137 78h93v-376zM232 0l392 649h101l-392 -649h-101zM887 146v-51q0 -54 -39.5 -76.5t-122.5 -22.5q-64 0 -120 7q-4 0 -15.5 1t-13.5 1v88l30 -6q65 -13 107 -13q29 0 40.5 6t11.5 24v34q0 18 -51 18h-87v75h87q36 0 36 25v28q0 13 -9 18
t-38 5q-45 0 -125 -8v78l42 2q38 3 92 3q82 0 120.5 -17t38.5 -65v-53q0 -25 -26 -44q42 -19 42 -57z" />
    <glyph glyph-name="twothirds" unicode="&#x2154;" horiz-adv-x="956" 
d="M340 273h-313v88q0 33 19.5 57t47.5 36t56 21t47.5 19t19.5 24v38q0 21 -55 21q-28 0 -127 -17v82q80 13 145 13q79 0 119 -22t40 -76v-42q0 -40 -30.5 -66t-67 -35t-67 -23t-30.5 -33v-5h196v-80zM232 0l392 649h101l-392 -649h-101zM887 146v-51q0 -54 -39.5 -76.5
t-122.5 -22.5q-64 0 -120 7q-4 0 -15.5 1t-13.5 1v88l30 -6q65 -13 107 -13q29 0 40.5 6t11.5 24v34q0 18 -51 18h-87v75h87q36 0 36 25v28q0 13 -9 18t-38 5q-45 0 -125 -8v78l42 2q38 3 92 3q82 0 120.5 -17t38.5 -65v-53q0 -25 -26 -44q42 -19 42 -57z" />
    <glyph glyph-name="oneeighth" unicode="&#x215b;" horiz-adv-x="956" 
d="M344 273h-119v263l-111 -57v92l137 78h93v-376zM232 0l392 649h101l-392 -649h-101zM743 -6q-85 0 -127 20t-42 72v56q0 36 50 58q-36 18 -36 49v46q0 44 33.5 65.5t121.5 21.5t121.5 -21.5t33.5 -65.5v-46q0 -30 -38 -49q22 -10 37 -25.5t15 -32.5v-56q0 -52 -41.5 -72
t-127.5 -20zM744 159q-29 0 -38 -5.5t-9 -17.5v-43q0 -16 8 -21t38 -5t38 5t8 21v43q0 12 -8.5 17.5t-36.5 5.5zM743 230q36 0 36 22v36q0 11 -7.5 16.5t-28.5 5.5q-36 0 -36 -22v-36q0 -22 36 -22z" />
    <glyph glyph-name="threeeighths" unicode="&#x215c;" horiz-adv-x="956" 
d="M333 419v-51q0 -54 -39.5 -76.5t-122.5 -22.5q-64 0 -120 7q-4 0 -15.5 1t-13.5 1v88l30 -6q65 -13 107 -13q29 0 40.5 6t11.5 24v34q0 18 -51 18h-87v75h87q36 0 36 25v28q0 13 -9 18t-38 5q-45 0 -125 -8v78l42 2q38 3 92 3q82 0 120.5 -17t38.5 -65v-53q0 -25 -26 -44
q42 -19 42 -57zM232 0l392 649h101l-392 -649h-101zM743 -6q-85 0 -127 20t-42 72v56q0 36 50 58q-36 18 -36 49v46q0 44 33.5 65.5t121.5 21.5t121.5 -21.5t33.5 -65.5v-46q0 -30 -38 -49q22 -10 37 -25.5t15 -32.5v-56q0 -52 -41.5 -72t-127.5 -20zM744 159
q-29 0 -38 -5.5t-9 -17.5v-43q0 -16 8 -21t38 -5t38 5t8 21v43q0 12 -8.5 17.5t-36.5 5.5zM743 230q36 0 36 22v36q0 11 -7.5 16.5t-28.5 5.5q-36 0 -36 -22v-36q0 -22 36 -22z" />
    <glyph glyph-name="fiveeighths" unicode="&#x215d;" horiz-adv-x="956" 
d="M334 436v-71q0 -26 -10.5 -45t-26 -29t-39 -15.5t-42 -7t-43.5 -1.5q-61 0 -143 8v89q94 -17 131 -17q52 0 52 22v48q0 21 -35 21h-139v211h284v-82h-165v-50h51q19 0 38.5 -3.5t40 -11.5t33.5 -25t13 -41zM232 0l392 649h101l-392 -649h-101zM743 -6q-85 0 -127 20
t-42 72v56q0 36 50 58q-36 18 -36 49v46q0 44 33.5 65.5t121.5 21.5t121.5 -21.5t33.5 -65.5v-46q0 -30 -38 -49q22 -10 37 -25.5t15 -32.5v-56q0 -52 -41.5 -72t-127.5 -20zM744 159q-29 0 -38 -5.5t-9 -17.5v-43q0 -16 8 -21t38 -5t38 5t8 21v43q0 12 -8.5 17.5t-36.5 5.5
zM743 230q36 0 36 22v36q0 11 -7.5 16.5t-28.5 5.5q-36 0 -36 -22v-36q0 -22 36 -22z" />
    <glyph glyph-name="seveneighths" unicode="&#x215e;" horiz-adv-x="956" 
d="M341 581l-158 -308h-132l158 293h-193v83h325v-68zM232 0l392 649h101l-392 -649h-101zM743 -6q-85 0 -127 20t-42 72v56q0 36 50 58q-36 18 -36 49v46q0 44 33.5 65.5t121.5 21.5t121.5 -21.5t33.5 -65.5v-46q0 -30 -38 -49q22 -10 37 -25.5t15 -32.5v-56
q0 -52 -41.5 -72t-127.5 -20zM744 159q-29 0 -38 -5.5t-9 -17.5v-43q0 -16 8 -21t38 -5t38 5t8 21v43q0 12 -8.5 17.5t-36.5 5.5zM743 230q36 0 36 22v36q0 11 -7.5 16.5t-28.5 5.5q-36 0 -36 -22v-36q0 -22 36 -22z" />
    <glyph glyph-name="partialdiff" unicode="&#x2202;" 
d="M55 169v108q0 42 11 70.5t27 43.5t48 23t58 9.5t74 1.5h107v57q0 52 -16.5 64t-84.5 12q-53 0 -193 -16v107q144 10 210 10q40 0 66.5 -2.5t60 -13t54 -29.5t34.5 -55.5t14 -87.5v-302q0 -48 -14 -82t-34 -52.5t-53.5 -29t-62.5 -13t-70 -2.5q-40 0 -69 2.5t-62.5 13
t-54.5 29t-35.5 52.5t-14.5 82zM200 276v-114q0 -50 13.5 -62.5t75.5 -12.5t76.5 13t14.5 61v168h-90q-60 0 -75 -9.5t-15 -43.5z" />
    <glyph glyph-name="product" unicode="&#x220f;" horiz-adv-x="647" 
d="M609 562h-90v-562h-145v562h-109v-562h-145v562h-90v87h579v-87z" />
    <glyph glyph-name="summation" unicode="&#x2211;" horiz-adv-x="582" 
d="M542 0h-502v117l255 217l-255 193v122h492v-108h-305l202 -157v-95l-212 -178h325v-111z" />
    <glyph glyph-name="minus" unicode="&#x2212;" 
d="M510 264h-440v101h440v-101z" />
    <glyph glyph-name="uni2215" unicode="&#x2215;" horiz-adv-x="120" 
d="M-186 0l392 649h101l-392 -649h-101z" />
    <glyph glyph-name="uni2219" unicode="&#x2219;" horiz-adv-x="256" 
d="M197 262h-147v138h147v-138z" />
    <glyph glyph-name="radical" unicode="&#x221a;" horiz-adv-x="661" 
d="M661 659l-322 -659h-116l-77 404h-126v94h247l49 -301l199 462h146z" />
    <glyph glyph-name="infinity" unicode="&#x221e;" 
d="M541 267q0 -122 -124 -122q-53 0 -126 81q-1 -1 -16.5 -16t-20.5 -19l-20 -16t-23.5 -16.5t-21.5 -9t-25 -4.5q-63 0 -94 29t-31 93q0 60 33 91t91 31q24 0 50 -15t41 -29.5t36 -37.5q79 82 126 82q64 0 94.5 -28.5t30.5 -93.5zM456 267q0 22 -13.5 34.5t-35.5 12.5
q-30 0 -77 -47q45 -47 76 -47q50 0 50 47zM250 267q-61 47 -76 47q-22 0 -36 -12.5t-14 -34.5q0 -21 14 -34t35 -13q30 0 77 47z" />
    <glyph glyph-name="integral" unicode="&#x222b;" horiz-adv-x="355" 
d="M355 599q-14 2 -33 2q-52 0 -63.5 -8.5t-11.5 -42.5v-590q0 -86 -51.5 -116.5t-149.5 -30.5q-30 0 -47 1v96q6 -1 18 -1q54 0 69 14t15 70v549q0 89 45 121t143 32q25 0 66 -3v-93z" />
    <glyph glyph-name="approxequal" unicode="&#x2248;" 
d="M190 451q38 0 108.5 -29.5t94.5 -29.5q81 0 119 62v-101q-36 -46 -123 -46q-32 0 -102.5 29.5t-100.5 29.5q-42 0 -69.5 -14.5t-48.5 -46.5v101q37 45 122 45zM190 275q38 0 108.5 -29.5t94.5 -29.5q81 0 119 62v-101q-36 -46 -123 -46q-32 0 -102.5 29.5t-100.5 29.5
q-42 0 -69.5 -14.5t-48.5 -46.5v101q37 45 122 45z" />
    <glyph glyph-name="notequal" unicode="&#x2260;" 
d="M509 135h-270l-61 -100h-87l61 100h-81v101h143l65 107h-208v101h270l61 100h87l-61 -100h81v-101h-143l-65 -107h208v-101z" />
    <glyph glyph-name="lessequal" unicode="&#x2264;" 
d="M509 116l-438 133v112l438 133v-91l-354 -98l354 -98v-91zM509 0h-438v96h438v-96z" />
    <glyph glyph-name="greaterequal" unicode="&#x2265;" 
d="M509 249l-438 -133v91l354 98l-354 98v91l438 -133v-112zM509 0h-438v96h438v-96z" />
    <glyph glyph-name="lozenge" unicode="&#x25ca;" horiz-adv-x="493" 
d="M463 333l-217 -386l-216 386l216 376zM333 331l-87 171l-90 -171l90 -177z" />
    <glyph glyph-name="ff" unicode="&#xfb00;" horiz-adv-x="709" 
d="M719 612q-60 8 -86 8q-36 0 -50.5 -11.5t-14.5 -43.5v-81h133v-90h-133v-394h-146v394h-175v-394h-146v394h-91v90h91v73q0 89 45 121t143 32q40 0 86 -5v-90q-39 5 -63 5q-36 0 -50.5 -11.5t-14.5 -43.5v-81h175v73q0 89 45 121t143 32q42 0 109 -8v-90z" />
    <glyph glyph-name="fi" unicode="&#xfb01;" horiz-adv-x="636" 
d="M375 705v-90q-39 5 -63 5q-36 0 -50.5 -11.5t-14.5 -43.5v-81h123v-90h-123v-394h-146v394h-91v90h91v73q0 89 45 121t143 32q40 0 86 -5zM568 582h-146v118h146v-118zM568 0h-146v484h146v-484z" />
    <glyph glyph-name="fl" unicode="&#xfb02;" horiz-adv-x="636" 
d="M375 705v-90q-39 5 -63 5q-36 0 -50.5 -11.5t-14.5 -43.5v-81h123v-90h-123v-394h-146v394h-91v90h91v73q0 89 45 121t143 32q40 0 86 -5zM568 0h-146v700h146v-700z" />
    <glyph glyph-name="ffi" unicode="&#xfb03;" horiz-adv-x="957" 
d="M696 705v-90q-39 5 -63 5q-36 0 -50.5 -11.5t-14.5 -43.5v-81h123v-90h-123v-394h-146v394h-175v-394h-146v394h-91v90h91v73q0 89 45 121t143 32q40 0 86 -5v-90q-39 5 -63 5q-36 0 -50.5 -11.5t-14.5 -43.5v-81h175v73q0 89 45 121t143 32q40 0 86 -5zM889 0h-146v484
h146v-484zM889 582h-146v118h146v-118z" />
    <glyph glyph-name="ffl" unicode="&#xfb04;" horiz-adv-x="957" 
d="M696 705v-90q-39 5 -63 5q-36 0 -50.5 -11.5t-14.5 -43.5v-81h123v-90h-123v-394h-146v394h-175v-394h-146v394h-91v90h91v73q0 89 45 121t143 32q40 0 86 -5v-90q-39 5 -63 5q-36 0 -50.5 -11.5t-14.5 -43.5v-81h175v73q0 89 45 121t143 32q40 0 86 -5zM889 0h-146v700
h146v-700z" />
    <glyph glyph-name="commaaccent" horiz-adv-x="400" 
d="M290 -46l-83 -162h-96l46 162h133z" />
    <glyph glyph-name="a.smcp" horiz-adv-x="582" 
d="M-6 0l218 484h148l224 -484h-155l-37 90h-215l-36 -90h-147zM283 355l-69 -172h139z" />
    <glyph glyph-name="b.smcp" horiz-adv-x="594" 
d="M554 157v-29q0 -65 -48 -96.5t-162 -31.5h-275v484h268q64 0 103.5 -7.5t57 -25.5t22.5 -36t5 -49v-17q0 -40 -22 -58t-67 -28v-4q53 -9 85.5 -34.5t32.5 -67.5zM387 345v6q0 15 -5 23t-27 14t-65 6h-75v-99h78q59 0 76.5 11t17.5 39zM410 142v18q0 28 -23 37t-85 9h-87
v-116h82q63 0 88 12.5t25 39.5z" />
    <glyph glyph-name="c.smcp" horiz-adv-x="534" 
d="M504 7q-88 -17 -193 -17q-37 0 -59.5 1t-57.5 5.5t-57 15.5t-44 28.5t-32.5 47t-10.5 69.5v161q0 49 17.5 83.5t41.5 52.5t65 27.5t70.5 11t76.5 1.5q84 0 176 -18v-106q-104 24 -187 24q-112 0 -112 -80v-152q0 -72 122 -72q81 0 184 22v-105z" />
    <glyph glyph-name="d.smcp" horiz-adv-x="647" 
d="M597 298v-122q0 -176 -271 -176h-257v484h256q64 0 104.5 -4t75.5 -15t53.5 -32t28.5 -53.5t10 -81.5zM452 198v83q0 74 -33.5 93.5t-127.5 19.5h-76v-304h76q37 0 63 4t50 14.5t36 33t12 56.5z" />
    <glyph glyph-name="e.smcp" horiz-adv-x="545" 
d="M510 0h-441v484h431v-90h-285v-99h252v-90h-252v-115h295v-90z" />
    <glyph glyph-name="f.smcp" horiz-adv-x="535" 
d="M215 0h-146v484h431v-90h-285v-109h252v-90h-252v-195z" />
    <glyph glyph-name="g.smcp" horiz-adv-x="605" 
d="M555 12q-110 -22 -224 -22q-42 0 -73.5 2.5t-73.5 12.5t-68.5 28t-46 52.5t-19.5 82.5v139q0 54 21.5 92t63 58t91 28.5t115.5 8.5q78 0 210 -22v-106q-119 28 -208 28q-34 0 -55 -2t-44 -10t-34 -25.5t-11 -45.5v-133q0 -88 148 -88q31 0 79 5v85h-76v89h205v-257z" />
    <glyph glyph-name="h.smcp" horiz-adv-x="653" 
d="M584 0h-146v202h-223v-202h-146v484h146v-187h223v187h146v-484z" />
    <glyph glyph-name="i.smcp" horiz-adv-x="286" 
d="M215 0h-146v484h146v-484z" />
    <glyph glyph-name="j.smcp" horiz-adv-x="428" 
d="M358 484v-317q0 -101 -49.5 -136.5t-151.5 -35.5q-74 0 -137 7v96q60 -8 125 -8q39 0 53 14.5t14 46.5v333h146z" />
    <glyph glyph-name="k.smcp" horiz-adv-x="581" 
d="M601 0h-175l-205 263l189 221h177l-202 -220zM215 0h-146v484h146v-484z" />
    <glyph glyph-name="l.smcp" horiz-adv-x="485" 
d="M480 0h-411v484h146v-394h265v-90z" />
    <glyph glyph-name="m.smcp" horiz-adv-x="787" 
d="M717 0h-135v330h-5l-134 -330h-107l-130 330h-5v-330h-131v484h199l124 -326l124 326h200v-484z" />
    <glyph glyph-name="n.smcp" horiz-adv-x="675" 
d="M605 0h-167l-233 330v-330h-135v484h167l233 -321v321h135v-484z" />
    <glyph glyph-name="o.smcp" horiz-adv-x="654" 
d="M604 309v-143q0 -39 -12 -69.5t-34.5 -49t-47.5 -30.5t-59.5 -17.5t-61.5 -7.5t-62 -2t-62 2t-61.5 7.5t-59.5 17.5t-47.5 30.5t-34.5 49t-12 69.5v143q0 50 19 85.5t45.5 54.5t67.5 29.5t72.5 13t72.5 2.5t72.5 -2.5t72.5 -13t67.5 -29.5t45.5 -54.5t19 -85.5zM453 151
v177q0 76 -126 76t-126 -76v-177q0 -70 126 -70t126 70z" />
    <glyph glyph-name="p.smcp" horiz-adv-x="581" 
d="M541 336v-35q0 -98 -57 -130t-215 -32h-54v-139h-146v484h218q141 0 197.5 -30.5t56.5 -117.5zM401 310v11q0 43 -22.5 58t-98.5 15h-65v-165h67q73 0 96 17.5t23 63.5z" />
    <glyph glyph-name="q.smcp" horiz-adv-x="654" 
d="M604 318v-126q0 -43 -10 -66t-37 -45h97v-81h-327q-35 0 -62 2t-61.5 7.5t-59.5 17.5t-47.5 30.5t-34.5 49t-12 69.5v142q0 36 10 64t24.5 46.5t39.5 31.5t46 19.5t53.5 10t52.5 4t51 0.5t51 -0.5t52.5 -4t53.5 -10t46 -19.5t39.5 -31.5t24.5 -46.5t10 -64zM453 160v168
q0 76 -126 76t-126 -76v-168q0 -70 126 -70t126 70z" />
    <glyph glyph-name="r.smcp" horiz-adv-x="602" 
d="M583 0h-174l-134 174h-60v-174h-146v484h306q94 0 131 -26t37 -99v-52q0 -57 -33 -81t-95 -30zM397 317v28q0 28 -22.5 38.5t-73.5 10.5h-86v-128h97q85 0 85 51z" />
    <glyph glyph-name="s.smcp" horiz-adv-x="544" 
d="M501 189v-61q0 -36 -14.5 -62t-36.5 -40.5t-56.5 -22.5t-65.5 -10.5t-73 -2.5q-89 0 -201 15v97q139 -21 203 -21q50 0 75 11t25 40v18q0 18 -15.5 33.5t-53.5 15.5h-83q-76 0 -118.5 30.5t-42.5 89.5v59q0 63 65 89.5t186 26.5q58 0 182 -9v-93q-156 12 -186 12
q-53 0 -78 -8t-25 -30v-19q0 -23 13 -32.5t48 -9.5h64q188 0 188 -116z" />
    <glyph glyph-name="t.smcp" horiz-adv-x="545" 
d="M514 394h-169v-394h-146v394h-170v90h485v-90z" />
    <glyph glyph-name="u.smcp" horiz-adv-x="625" 
d="M556 484v-306q0 -59 -21.5 -98.5t-60 -58t-76 -25t-86.5 -6.5q-39 0 -70 3.5t-65 15t-56.5 31.5t-37 55t-14.5 83v306h146v-305q0 -50 18 -69.5t81 -19.5q62 0 79 19.5t17 69.5v305h146z" />
    <glyph glyph-name="v.smcp" horiz-adv-x="590" 
d="M590 484l-218 -484h-148l-224 484h155l146 -335l142 335h147z" />
    <glyph glyph-name="w.smcp" horiz-adv-x="866" 
d="M856 484l-168 -484h-148l-106 327l-104 -327h-148l-172 484h149l100 -351l106 351h143l110 -351l96 351h142z" />
    <glyph glyph-name="x.smcp" horiz-adv-x="589" 
d="M579 0h-169l-116 152l-115 -152h-169l200 248l-190 236h169l105 -139l106 139h169l-191 -236z" />
    <glyph glyph-name="y.smcp" horiz-adv-x="583" 
d="M573 484l-209 -299v-185h-146v182l-208 302h156l123 -200l123 200h161z" />
    <glyph glyph-name="z.smcp" horiz-adv-x="542" 
d="M506 0h-466v73l270 321h-260v90h450v-73l-270 -321h276v-90z" />
    <glyph glyph-name="ae.smcp" horiz-adv-x="840" 
d="M805 0h-410v100h-207l-47 -100h-147l238 484h563v-90h-255v-99h222v-90h-222v-115h265v-90zM328 394l-95 -199h162v199h-67z" />
    <glyph glyph-name="eng.smcp" horiz-adv-x="675" 
d="M605 484v-476q0 -188 -168 -188q-66 0 -91 5v89q18 -5 52 -5q69 0 70 79l-263 342v-330h-135v484h167l233 -301v301h135z" />
    <glyph glyph-name="oe.smcp" horiz-adv-x="831" 
d="M796 0h-475q-271 0 -271 176v122q0 186 272 186h464v-90h-255v-99h222v-90h-222v-115h265v-90zM195 287v-95q0 -34 12.5 -55.5t38 -31t51 -12.5t64.5 -3h31v305h-36q-32 0 -52 -1.5t-43 -7.5t-36 -17t-21.5 -31.5t-8.5 -50.5z" />
    <glyph glyph-name="eth.smcp" horiz-adv-x="647" 
d="M597 298v-122q0 -176 -271 -176h-257v202h-50v95h50v187h256q64 0 104.5 -4t75.5 -15t53.5 -32t28.5 -53.5t10 -81.5zM452 198v83q0 74 -33.5 93.5t-127.5 19.5h-76v-97h89v-95h-89v-112h76q37 0 63 4t50 14.5t36 33t12 56.5z" />
    <glyph glyph-name="hbar.smcp" horiz-adv-x="653" 
d="M583 0h-145v102h-223v-102h-145v484h145v-95h223v95h145v-484zM215 294v-97h223v97h-223z" />
    <glyph glyph-name="ij.smcp" horiz-adv-x="695" 
d="M215 0h-146v484h146v-484zM625 484v-317q0 -101 -49.5 -136.5t-151.5 -35.5q-74 0 -137 7v96q60 -8 125 -8q39 0 53 14.5t14 46.5v333h146z" />
    <glyph glyph-name="idotaccent.smcp" horiz-adv-x="286" 
d="M215 0h-146v484h146v-484zM216 565h-146v115h146v-115z" />
    <glyph glyph-name="dotlessi.smcp" horiz-adv-x="286" 
d="M216 0h-146v484h146v-484z" />
    <glyph glyph-name="oslash.smcp" horiz-adv-x="654" 
d="M604 176q0 -186 -277 -186t-277 186v123q0 195 277 195t277 -195v-123zM453 153v173q0 18 -8 32l-203 -263q30 -12 85 -12q126 0 126 70zM201 153q0 -11 3 -20l197 259q-33 10 -74 10q-126 0 -126 -76v-173z" />
    <glyph glyph-name="thorn.smcp" horiz-adv-x="581" 
d="M541 266v-35q0 -98 -57 -130t-215 -32h-54v-69h-146v484h145v-70h73q141 0 197.5 -30.5t56.5 -117.5zM401 235v21q0 42 -22 55t-99 13h-65v-165h67q74 0 96.5 15.5t22.5 60.5z" />
    <glyph glyph-name="tbar.smcp" horiz-adv-x="545" 
d="M514 394h-169v-121h89v-93h-89v-180h-146v180h-90v93h90v121h-170v90h485v-90z" />
    <glyph glyph-name="kgreenlandic.smcp" horiz-adv-x="640" 
d="M542 0h-165l-175 272l159 212h167l-168 -211zM196 0h-146v484h146v-484zM480 322l83 162h96l-46 -162h-133z" />
    <glyph glyph-name="lslash.smcp" horiz-adv-x="515" 
d="M13 190v86l57 12v196h145v-165l124 27v-86l-124 -27v-137h265v-96h-410v202z" />
    <glyph glyph-name="ampersand.smcp" horiz-adv-x="702" 
d="M523 239v60h118v-65q0 -46 -17 -75.5t-50 -54.5q23 -16 41 -19.5t54 -3.5h14v-81h-91q-45 0 -68 4.5t-47 20.5q-79 -35 -177 -35q-240 0 -240 93v84q0 70 125 95q-40 34 -53.5 55.5t-13.5 48.5v36q0 49 56 70.5t177 21.5q72 0 162 -10v-97q-88 15 -147 15
q-56 0 -78.5 -6.5t-22.5 -21.5q0 -18 23 -37l211 -172q24 29 24 74zM208 162v-24q0 -36 20.5 -46.5t85.5 -10.5q45 0 76 12l-141 116q-41 -16 -41 -47z" />
    <glyph glyph-name="euro.smcp" horiz-adv-x="534" 
d="M10 264v67h58q2 45 19.5 77t40.5 48.5t62 25.5t67.5 10.5t73.5 1.5q74 0 166 -18v-103q-104 24 -177 24q-51 0 -75.5 -15.5t-28.5 -50.5h211v-67h-211v-46h211v-67h-211q7 -62 114 -62q71 0 174 22v-104q-88 -17 -183 -17q-44 0 -70.5 1.5t-65 10t-60.5 24.5t-39 48
t-18 77h-58v67h58v46h-58z" />
    <glyph glyph-name="dollar.smcp" horiz-adv-x="500" 
d="M307 -71h-82v81q-76 2 -182 15v97q139 -21 193 -21q44 0 67 8t23 33v28q0 12 -2 18.5t-16 13.5t-41 7h-73q-76 0 -118.5 30.5t-42.5 89.5v49q0 103 192 114v80h82v-79q50 -1 139 -8v-91q-156 12 -176 12q-93 0 -93 -28v-31q0 -12 12.5 -22t38.5 -10h64q178 0 178 -116
v-51q0 -69 -43.5 -99t-119.5 -36v-84z" />
    <glyph glyph-name="cent.smcp" horiz-adv-x="500" 
d="M479 29q-48 -8 -133 -15v-85h-82v83q-38 1 -65.5 3.5t-61 13t-55 27.5t-36 48.5t-14.5 74.5v136q0 44 14 76.5t35.5 51t54.5 29.5t61.5 14.5t66.5 4.5v82h82v-84q66 -5 126 -16v-97q-104 24 -180 24q-112 0 -112 -80v-143q0 -72 122 -72q74 0 177 22v-98z" />
    <glyph glyph-name="sterling.smcp" 
d="M529 0h-480v95h111v106h-111v92h111v12q0 60 12 98t39 57.5t61 26.5t88 7q79 0 121 -5v-98q-35 5 -97 5q-50 0 -64.5 -13.5t-14.5 -70.5v-19h136v-92h-136v-106h224v-95z" />
    <glyph glyph-name="yen.smcp" horiz-adv-x="623" 
d="M79 148h159v34l-11 14h-148v77h90l-159 211h156l143 -200l138 200h166l-162 -211h80v-77h-139l-8 -11v-37h147v-77h-147v-71h-146v71h-159v77z" />
    <glyph glyph-name="florin.smcp" horiz-adv-x="402" 
d="M398 392q-60 8 -76 8q-52 0 -63.5 -8.5t-11.5 -42.5v-66h141v-87h-141v-236q0 -86 -51.5 -116.5t-149.5 -30.5q-30 0 -47 1v96q6 -1 18 -1q54 0 69 14t15 70v203h-91v87h91v58q0 89 45 121t143 32q42 0 109 -8v-94z" />
    <glyph glyph-name="exclam.smcp" horiz-adv-x="295" 
d="M235 483l-43 -295h-89l-43 295h175zM226 0h-156v138h156v-138z" />
    </font>
</defs>
</svg>
